  0
SECTION
  2
HEADER
  9
$ACADVER
  1
AC1018
  9
$ACADMAINTVER
 70
   104
  9
$DWGCODEPAGE
  3
ANSI_932
  9
$LASTSAVEDBY
  1
kakinuma tsutomu
  9
$INSBASE
 10
0.0
 20
0.0
 30
0.0
  9
$EXTMIN
 10
8.219758556704618
 20
16.08475610186997
 30
-0.0000000000000058
  9
$EXTMAX
 10
4208.639802570147
 20
2986.295441810151
 30
0.0000000000000104
  9
$LIMMIN
 10
0.0
 20
0.0
  9
$LIMMAX
 10
1189.0
 20
841.0
  9
$ORTHOMODE
 70
     1
  9
$REGENMODE
 70
     1
  9
$FILLMODE
 70
     1
  9
$QTEXTMODE
 70
     0
  9
$MIRRTEXT
 70
     0
  9
$LTSCALE
 40
1.0
  9
$ATTMODE
 70
     1
  9
$TEXTSIZE
 40
3.0
  9
$TRACEWID
 40
1.0
  9
$TEXTSTYLE
  7
STANDARD
  9
$CLAYER
  8
外形線
  9
$CELTYPE
  6
BYLAYER
  9
$CECOLOR
 62
   256
  9
$CELTSCALE
 40
1.0
  9
$DISPSILH
 70
     0
  9
$DIMSCALE
 40
10.0
  9
$DIMASZ
 40
3.0
  9
$DIMEXO
 40
1.0
  9
$DIMDLI
 40
10.0
  9
$DIMRND
 40
0.0
  9
$DIMDLE
 40
0.0
  9
$DIMEXE
 40
0.0
  9
$DIMTP
 40
0.0
  9
$DIMTM
 40
0.0
  9
$DIMTXT
 40
3.0
  9
$DIMCEN
 40
0.0
  9
$DIMTSZ
 40
0.0
  9
$DIMTOL
 70
     0
  9
$DIMLIM
 70
     0
  9
$DIMTIH
 70
     0
  9
$DIMTOH
 70
     0
  9
$DIMSE1
 70
     0
  9
$DIMSE2
 70
     0
  9
$DIMTAD
 70
     3
  9
$DIMZIN
 70
     8
  9
$DIMBLK
  1
DotSmall
  9
$DIMASO
 70
     1
  9
$DIMSHO
 70
     1
  9
$DIMPOST
  1

  9
$DIMAPOST
  1

  9
$DIMALT
 70
     0
  9
$DIMALTD
 70
     2
  9
$DIMALTF
 40
0.039
  9
$DIMLFAC
 40
1.0
  9
$DIMTOFL
 70
     1
  9
$DIMTVP
 40
0.0
  9
$DIMTIX
 70
     1
  9
$DIMSOXD
 70
     0
  9
$DIMSAH
 70
     0
  9
$DIMBLK1
  1

  9
$DIMBLK2
  1

  9
$DIMSTYLE
  2
ベース
  9
$DIMCLRD
 70
   256
  9
$DIMCLRE
 70
   256
  9
$DIMCLRT
 70
     7
  9
$DIMTFAC
 40
1.0
  9
$DIMGAP
 40
1.0
  9
$DIMJUST
 70
     0
  9
$DIMSD1
 70
     0
  9
$DIMSD2
 70
     0
  9
$DIMTOLJ
 70
     1
  9
$DIMTZIN
 70
     8
  9
$DIMALTZ
 70
     0
  9
$DIMALTTZ
 70
     0
  9
$DIMUPT
 70
     0
  9
$DIMDEC
 70
     1
  9
$DIMTDEC
 70
     1
  9
$DIMALTU
 70
     8
  9
$DIMALTTD
 70
     2
  9
$DIMTXSTY
  7
STANDARD
  9
$DIMAUNIT
 70
     0
  9
$DIMADEC
 70
     3
  9
$DIMALTRND
 40
0.0
  9
$DIMAZIN
 70
     2
  9
$DIMDSEP
 70
    46
  9
$DIMATFIT
 70
     2
  9
$DIMFRAC
 70
     0
  9
$DIMLDRBLK
  1
OPEN
  9
$DIMLUNIT
 70
     2
  9
$DIMLWD
 70
    -1
  9
$DIMLWE
 70
    -1
  9
$DIMTMOVE
 70
     2
  9
$LUNITS
 70
     2
  9
$LUPREC
 70
     2
  9
$SKETCHINC
 40
1.0
  9
$FILLETRAD
 40
0.0
  9
$AUNITS
 70
     0
  9
$AUPREC
 70
     0
  9
$MENU
  1
.
  9
$ELEVATION
 40
0.0
  9
$PELEVATION
 40
0.0
  9
$THICKNESS
 40
0.0
  9
$LIMCHECK
 70
     0
  9
$CHAMFERA
 40
10.0
  9
$CHAMFERB
 40
10.0
  9
$CHAMFERC
 40
0.0
  9
$CHAMFERD
 40
0.0
  9
$SKPOLY
 70
     0
  9
$TDCREATE
 40
2450151.543958333
  9
$TDUCREATE
 40
2450151.168962292
  9
$TDUPDATE
 40
2458749.701678241
  9
$TDUUPDATE
 40
2458749.326678241
  9
$TDINDWG
 40
4.3614029977
  9
$TDUSRTIMER
 40
4.3614029977
  9
$USRTIMER
 70
     1
  9
$ANGBASE
 50
0.0
  9
$ANGDIR
 70
     0
  9
$PDMODE
 70
     1
  9
$PDSIZE
 40
0.0
  9
$PLINEWID
 40
0.0
  9
$SPLFRAME
 70
     0
  9
$SPLINETYPE
 70
     6
  9
$SPLINESEGS
 70
     8
  9
$HANDSEED
  5
5B2A
  9
$SURFTAB1
 70
     6
  9
$SURFTAB2
 70
     6
  9
$SURFTYPE
 70
     6
  9
$SURFU
 70
     6
  9
$SURFV
 70
     6
  9
$UCSBASE
  2

  9
$UCSNAME
  2
PROFI
  9
$UCSORG
 10
0.0
 20
0.0
 30
0.0
  9
$UCSXDIR
 10
1.0
 20
0.0
 30
0.0
  9
$UCSYDIR
 10
0.0
 20
1.0
 30
0.0
  9
$UCSORTHOREF
  2

  9
$UCSORTHOVIEW
 70
     0
  9
$UCSORGTOP
 10
0.0
 20
0.0
 30
0.0
  9
$UCSORGBOTTOM
 10
0.0
 20
0.0
 30
0.0
  9
$UCSORGLEFT
 10
0.0
 20
0.0
 30
0.0
  9
$UCSORGRIGHT
 10
0.0
 20
0.0
 30
0.0
  9
$UCSORGFRONT
 10
0.0
 20
0.0
 30
0.0
  9
$UCSORGBACK
 10
0.0
 20
0.0
 30
0.0
  9
$PUCSBASE
  2

  9
$PUCSNAME
  2

  9
$PUCSORG
 10
0.0
 20
0.0
 30
0.0
  9
$PUCSXDIR
 10
1.0
 20
0.0
 30
0.0
  9
$PUCSYDIR
 10
0.0
 20
1.0
 30
0.0
  9
$PUCSORTHOREF
  2

  9
$PUCSORTHOVIEW
 70
     0
  9
$PUCSORGTOP
 10
0.0
 20
0.0
 30
0.0
  9
$PUCSORGBOTTOM
 10
0.0
 20
0.0
 30
0.0
  9
$PUCSORGLEFT
 10
0.0
 20
0.0
 30
0.0
  9
$PUCSORGRIGHT
 10
0.0
 20
0.0
 30
0.0
  9
$PUCSORGFRONT
 10
0.0
 20
0.0
 30
0.0
  9
$PUCSORGBACK
 10
0.0
 20
0.0
 30
0.0
  9
$USERI1
 70
     6
  9
$USERI2
 70
 11614
  9
$USERI3
 70
     0
  9
$USERI4
 70
     4
  9
$USERI5
 70
     0
  9
$USERR1
 40
1.0
  9
$USERR2
 40
1.0
  9
$USERR3
 40
0.0
  9
$USERR4
 40
0.0
  9
$USERR5
 40
0.0
  9
$WORLDVIEW
 70
     1
  9
$SHADEDGE
 70
     2
  9
$SHADEDIF
 70
    70
  9
$TILEMODE
 70
     1
  9
$MAXACTVP
 70
     8
  9
$PINSBASE
 10
0.0
 20
0.0
 30
0.0
  9
$PLIMCHECK
 70
     0
  9
$PEXTMIN
 10
1.000000000000000E+20
 20
1.000000000000000E+20
 30
1.000000000000000E+20
  9
$PEXTMAX
 10
-1.000000000000000E+20
 20
-1.000000000000000E+20
 30
-1.000000000000000E+20
  9
$PLIMMIN
 10
0.0
 20
0.0
  9
$PLIMMAX
 10
420.0
 20
297.0
  9
$UNITMODE
 70
     0
  9
$VISRETAIN
 70
     0
  9
$PLINEGEN
 70
     0
  9
$PSLTSCALE
 70
     1
  9
$TREEDEPTH
 70
  3020
  9
$CMLSTYLE
  2
STANDARD
  9
$CMLJUST
 70
     0
  9
$CMLSCALE
 40
1.0
  9
$PROXYGRAPHICS
 70
     1
  9
$MEASUREMENT
 70
     0
  9
$CELWEIGHT
370
    -1
  9
$ENDCAPS
280
     0
  9
$JOINSTYLE
280
     0
  9
$LWDISPLAY
290
     0
  9
$INSUNITS
 70
     0
  9
$HYPERLINKBASE
  1

  9
$STYLESHEET
  1
MONOCHROME.CTB
  9
$XEDIT
290
     1
  9
$CEPSNTYPE
380
     0
  9
$PSTYLEMODE
290
     1
  9
$FINGERPRINTGUID
  2
{A03EA937-D662-4969-9246-525CE6C0CC55}
  9
$VERSIONGUID
  2
{E32B860C-96D7-0941-8FCB-B5A9AD9C7D50}
  9
$EXTNAMES
290
     1
  9
$PSVPSCALE
 40
0.0
  9
$OLESTARTUP
290
     0
  9
$SORTENTS
280
   127
  9
$INDEXCTL
280
     0
  9
$HIDETEXT
280
     1
  9
$XCLIPFRAME
290
     0
  9
$HALOGAP
280
     0
  9
$OBSCOLOR
 70
   257
  9
$OBSLTYPE
280
     0
  9
$INTERSECTIONDISPLAY
280
     0
  9
$INTERSECTIONCOLOR
 70
   257
  9
$DIMASSOC
280
     1
  9
$PROJECTNAME
  1

  0
ENDSEC
  0
SECTION
  2
CLASSES
  0
CLASS
  1
SPIMAINOBJ
  2
SpiCFG
  3
PROFI
 90
        0
 91
        0
280
     1
281
     0
  0
CLASS
  1
ACDBDICTIONARYWDFLT
  2
AcDbDictionaryWithDefault
  3
ObjectDBX Classes
 90
        0
 91
        1
280
     0
281
     0
  0
CLASS
  1
PLOTSETTINGS
  2
AcDbPlotSettings
  3
ObjectDBX Classes
 90
        0
 91
        0
280
     0
281
     0
  0
CLASS
  1
DICTIONARYVAR
  2
AcDbDictionaryVar
  3
ObjectDBX Classes
 90
        0
 91
       12
280
     0
281
     0
  0
CLASS
  1
TABLESTYLE
  2
AcDbTableStyle
  3
ObjectDBX Classes
 90
     4095
 91
        1
280
     0
281
     0
  0
CLASS
  1
SORTENTSTABLE
  2
AcDbSortentsTable
  3
ObjectDBX Classes
 90
        0
 91
        1
280
     0
281
     0
  0
CLASS
  1
MATERIAL
  2
AcDbMaterial
  3
ObjectDBX Classes
 90
     1153
 91
        3
280
     0
281
     0
  0
CLASS
  1
VISUALSTYLE
  2
AcDbVisualStyle
  3
ObjectDBX Classes
 90
     4095
 91
       26
280
     0
281
     0
  0
CLASS
  1
SCALE
  2
AcDbScale
  3
ObjectDBX Classes
 90
     1153
 91
       33
280
     0
281
     0
  0
CLASS
  1
MLEADERSTYLE
  2
AcDbMLeaderStyle
  3
ACDB_MLEADERSTYLE_CLASS
 90
     4095
 91
        1
280
     0
281
     0
  0
CLASS
  1
CELLSTYLEMAP
  2
AcDbCellStyleMap
  3
ObjectDBX Classes
 90
     1152
 91
        2
280
     0
281
     0
  0
CLASS
  1
MULTILEADER
  2
AcDbMLeader
  3
ACDB_MLEADER_CLASS
 90
     1025
 91
        4
280
     0
281
     1
  0
CLASS
  1
ACDBSECTIONVIEWSTYLE
  2
AcDbSectionViewStyle
  3
ObjectDBX Classes
 90
     1025
 91
        1
280
     0
281
     0
  0
CLASS
  1
ACDBDETAILVIEWSTYLE
  2
AcDbDetailViewStyle
  3
ObjectDBX Classes
 90
     1025
 91
        1
280
     0
281
     0
  0
CLASS
  1
LARGE_RADIAL_DIMENSION
  2
AcDbRadialDimensionLarge
  3
ObjectDBX Classes
 90
     1025
 91
        0
280
     0
281
     1
  0
CLASS
  1
EXACXREFPANELOBJECT
  2
ExAcXREFPanelObject
  3
EXAC_ESW
 90
     1025
 91
        0
280
     0
281
     0
  0
CLASS
  1
NPOCOLLECTION
  2
AcDbImpNonPersistentObjectsCollection
  3
ObjectDBX Classes
 90
     1153
 91
        0
280
     0
281
     0
  0
ENDSEC
  0
SECTION
  2
TABLES
  0
TABLE
  2
VPORT
  5
22
102
{ACAD_XDICTIONARY
360
2A3
102
}
330
0
100
AcDbSymbolTable
 70
     1
  0
VPORT
  5
22E
330
22
100
AcDbSymbolTableRecord
100
AcDbViewportTableRecord
  2
*Active
 70
     0
 10
0.0
 20
0.0
 11
1.0
 21
1.0
 12
2108.429780563426
 22
1501.19009895601
 13
0.0
 23
0.0
 14
1.0
 24
1.0
 15
100.0
 25
100.0
 16
0.0
 26
0.0
 36
1.0
 17
0.0
 27
0.0
 37
0.0
 40
2993.815009038412
 41
2.037135278514588
 42
50.0
 43
0.0
 44
0.0
 50
0.0
 51
0.0
 71
     0
 72
   100
 73
     1
 74
     3
 75
     0
 76
     0
 77
     0
 78
     0
281
     0
 65
     1
110
0.0
120
0.0
130
0.0
111
1.0
121
0.0
131
0.0
112
0.0
122
1.0
132
0.0
 79
     0
146
0.0
1001
ACAD_NAV_VCDISPLAY
1070
     3
  0
ENDTAB
  0
TABLE
  2
LTYPE
  5
1D
330
0
100
AcDbSymbolTable
 70
     2
  0
LTYPE
  5
1E
330
1D
100
AcDbSymbolTableRecord
100
AcDbLinetypeTableRecord
  2
BYBLOCK
 70
     0
  3

 72
    65
 73
     0
 40
0.0
  0
LTYPE
  5
1F
330
1D
100
AcDbSymbolTableRecord
100
AcDbLinetypeTableRecord
  2
BYLAYER
 70
     0
  3

 72
    65
 73
     0
 40
0.0
  0
LTYPE
  5
B
330
1D
100
AcDbSymbolTableRecord
100
AcDbLinetypeTableRecord
  2
CONTINUOUS
 70
     0
  3
Solid line
 72
    65
 73
     0
 40
0.0
  0
LTYPE
  5
47
330
1D
100
AcDbSymbolTableRecord
100
AcDbLinetypeTableRecord
  2
CENTER
 70
     0
  3
Center ____ _ ____ _ ____ _ ____ _ ____ _ ____
 72
    65
 73
     4
 40
50.8
 49
31.75
 74
     0
 49
-6.349999999999998
 74
     0
 49
6.349999999999998
 74
     0
 49
-6.349999999999998
 74
     0
  0
ENDTAB
  0
TABLE
  2
LAYER
  5
15
102
{ACAD_XDICTIONARY
360
16
102
}
330
0
100
AcDbSymbolTable
 70
    10
  0
LAYER
  5
7
102
{ACAD_XDICTIONARY
360
286
102
}
330
15
100
AcDbSymbolTableRecord
100
AcDbLayerTableRecord
  2
0
 70
     0
 62
     7
  6
CONTINUOUS
370
    -3
390
8
  0
LAYER
  5
31
102
{ACAD_XDICTIONARY
360
288
102
}
330
15
100
AcDbSymbolTableRecord
100
AcDbLayerTableRecord
  2
FRAM3
 70
     0
 62
     1
  6
CONTINUOUS
370
    50
390
8
  0
LAYER
  5
4C
102
{ACAD_XDICTIONARY
360
28A
102
}
330
15
100
AcDbSymbolTableRecord
100
AcDbLayerTableRecord
  2
外形線
 70
     0
 62
     7
  6
CONTINUOUS
370
    18
390
8
  0
LAYER
  5
55
102
{ACAD_XDICTIONARY
360
28C
102
}
330
15
100
AcDbSymbolTableRecord
100
AcDbLayerTableRecord
  2
細線
 70
     0
 62
     8
  6
CONTINUOUS
370
     5
390
8
  0
LAYER
  5
A3
102
{ACAD_XDICTIONARY
360
28E
102
}
330
15
100
AcDbSymbolTableRecord
100
AcDbLayerTableRecord
  2
寸法線
 70
     0
 62
     3
  6
CONTINUOUS
370
    18
390
8
  0
LAYER
  5
44
102
{ACAD_XDICTIONARY
360
290
102
}
330
15
100
AcDbSymbolTableRecord
100
AcDbLayerTableRecord
  2
ハッチング
 70
     0
 62
     8
  6
CONTINUOUS
370
     5
390
8
  0
LAYER
  5
46
102
{ACAD_XDICTIONARY
360
292
102
}
330
15
100
AcDbSymbolTableRecord
100
AcDbLayerTableRecord
  2
基準線
 70
     0
 62
     6
  6
CENTER
370
    18
390
8
  0
LAYER
  5
B1
102
{ACAD_XDICTIONARY
360
296
102
}
330
15
100
AcDbSymbolTableRecord
100
AcDbLayerTableRecord
  2
文字引出
 70
     0
 62
     4
  6
CONTINUOUS
370
    18
390
8
  0
LAYER
  5
3F
102
{ACAD_XDICTIONARY
360
298
102
}
330
15
100
AcDbSymbolTableRecord
100
AcDbLayerTableRecord
  2
文字
 70
     0
 62
     4
  6
CONTINUOUS
370
    18
390
8
  0
LAYER
  5
4A
330
15
100
AcDbSymbolTableRecord
100
AcDbLayerTableRecord
  2
DefPoints
 70
     0
 62
     7
  6
CONTINUOUS
290
     0
370
    -3
390
8
  0
ENDTAB
  0
TABLE
  2
STYLE
  5
1A
330
0
100
AcDbSymbolTable
 70
     1
  0
STYLE
  5
1B
330
1A
100
AcDbSymbolTableRecord
100
AcDbTextStyleTableRecord
  2
STANDARD
 70
     0
 40
0.0
 41
1.0
 50
0.0
 71
     0
 42
3.0
  3
TXT.SHX
  4
bigfont.shx
  0
ENDTAB
  0
TABLE
  2
VIEW
  5
20
330
0
100
AcDbSymbolTable
 70
     0
  0
ENDTAB
  0
TABLE
  2
UCS
  5
21
330
0
100
AcDbSymbolTable
 70
     1
  0
UCS
  5
24
330
21
100
AcDbSymbolTableRecord
100
AcDbUCSTableRecord
  2
PROFI
 70
     0
 10
0.0
 20
0.0
 30
0.0
 11
1.0
 21
0.0
 31
0.0
 12
0.0
 22
1.0
 32
0.0
 79
     0
146
0.0
  0
ENDTAB
  0
TABLE
  2
APPID
  5
25
330
0
100
AcDbSymbolTable
 70
    16
  0
APPID
  5
19
330
25
100
AcDbSymbolTableRecord
100
AcDbRegAppTableRecord
  2
ACAD
 70
     0
  0
APPID
  5
194
330
25
100
AcDbSymbolTableRecord
100
AcDbRegAppTableRecord
  2
ACAD_DSTYLE_DIMTEXT_FILL
 70
     0
  0
APPID
  5
282
330
25
100
AcDbSymbolTableRecord
100
AcDbRegAppTableRecord
  2
ACAD_MLEADERVER
 70
     0
  0
APPID
  5
2BB
330
25
100
AcDbSymbolTableRecord
100
AcDbRegAppTableRecord
  2
ACAD_DSTYLE_DIMJAG
 70
     0
  0
APPID
  5
2BC
330
25
100
AcDbSymbolTableRecord
100
AcDbRegAppTableRecord
  2
ACAD_DSTYLE_DIMTALN
 70
     0
  0
APPID
  5
2CD
330
25
100
AcDbSymbolTableRecord
100
AcDbRegAppTableRecord
  2
ACAD_EXEMPT_FROM_CAD_STANDARDS
 70
     0
  0
APPID
  5
374
330
25
100
AcDbSymbolTableRecord
100
AcDbRegAppTableRecord
  2
AcAecLayerStandard
 70
     0
  0
APPID
  5
375
330
25
100
AcDbSymbolTableRecord
100
AcDbRegAppTableRecord
  2
AcCmTransparency
 70
     0
  0
APPID
  5
376
330
25
100
AcDbSymbolTableRecord
100
AcDbRegAppTableRecord
  2
ACAD_NAV_VCDISPLAY
 70
     0
  0
APPID
  5
712
330
25
100
AcDbSymbolTableRecord
100
AcDbRegAppTableRecord
  2
PROFI
 70
     0
  0
APPID
  5
713
330
25
100
AcDbSymbolTableRecord
100
AcDbRegAppTableRecord
  2
ACAD_PSEXT
 70
     0
  0
APPID
  5
714
330
25
100
AcDbSymbolTableRecord
100
AcDbRegAppTableRecord
  2
AcDbDynamicBlockGUID
 70
     0
  0
APPID
  5
18E2
330
25
100
AcDbSymbolTableRecord
100
AcDbRegAppTableRecord
  2
ACAD_DSTYLE_DIM_LINETYPE
 70
     0
  0
APPID
  5
18E3
330
25
100
AcDbSymbolTableRecord
100
AcDbRegAppTableRecord
  2
ACAD_DSTYLE_DIM_EXT1_LINETYPE
 70
     0
  0
APPID
  5
18E4
330
25
100
AcDbSymbolTableRecord
100
AcDbRegAppTableRecord
  2
ACAD_DSTYLE_DIM_EXT2_LINETYPE
 70
     0
  0
APPID
  5
198B
330
25
100
AcDbSymbolTableRecord
100
AcDbRegAppTableRecord
  2
ACAD_DSTYLE_DIMRADIAL_EXTENSION
 70
     0
  0
ENDTAB
  0
TABLE
  2
DIMSTYLE
  5
26
330
0
100
AcDbSymbolTable
 70
     1
100
AcDbDimStyleTable
 71
     1
340
27
  0
DIMSTYLE
105
27
102
{ACAD_REACTORS
330
25FF
330
2604
330
2605
330
2606
330
2607
330
260A
330
2611
330
261C
330
261D
330
466E
330
466F
330
4670
330
4671
330
46D5
102
}
330
26
100
AcDbSymbolTableRecord
100
AcDbDimStyleTableRecord
  2
ベース
 70
     0
 40
10.0
 41
3.0
 42
1.0
 43
10.0
 44
0.0
 73
     0
 74
     0
 77
     3
 78
     8
 79
     2
140
3.0
141
0.0
143
0.039
147
1.0
172
     1
174
     1
176
   256
177
   256
178
     7
179
     3
271
     1
272
     1
273
     8
279
     2
284
     8
289
     2
340
1B
341
28
342
2E
371
    -1
372
    -1
1001
ACAD_DSTYLE_DIMJAG
1070
   388
1040
1.5
1001
ACAD_DSTYLE_DIMTALN
1070
   392
1070
     0
1001
ACAD_DSTYLE_DIM_LINETYPE
1070
   380
1005
1F
1001
ACAD_DSTYLE_DIM_EXT1_LINETYPE
1070
   381
1005
1F
1001
ACAD_DSTYLE_DIM_EXT2_LINETYPE
1070
   382
1005
1F
  0
ENDTAB
  0
TABLE
  2
BLOCK_RECORD
  5
1
330
0
100
AcDbSymbolTable
 70
    17
  0
BLOCK_RECORD
  5
2
102
{ACAD_XDICTIONARY
360
3
102
}
330
1
100
AcDbSymbolTableRecord
100
AcDbBlockTableRecord
  2
*MODEL_SPACE
340
D
  0
BLOCK_RECORD
  5
F
102
{ACAD_XDICTIONARY
360
10
102
}
330
1
100
AcDbSymbolTableRecord
100
AcDbBlockTableRecord
  2
*PAPER_SPACE
340
14
  0
BLOCK_RECORD
  5
28
330
1
100
AcDbSymbolTableRecord
100
AcDbBlockTableRecord
  2
_OPEN
340
0
102
{BLKREFS
331
5AA5
102
}
  0
BLOCK_RECORD
  5
2E
330
1
100
AcDbSymbolTableRecord
100
AcDbBlockTableRecord
  2
_DotSmall
340
0
102
{BLKREFS
331
5A6C
331
5A6D
331
5A75
331
5A76
331
5A80
331
5A81
331
5A8C
331
5A8D
331
5A94
331
5A95
331
5A9D
331
5A9E
331
5AAB
331
5AAC
331
5AB4
331
5AB5
331
5ABD
331
5ABE
331
5AC8
331
5AC9
331
5AD1
331
5AD2
331
5ADA
331
5ADB
331
5AE3
331
5AE4
102
}
  0
BLOCK_RECORD
  5
4D
330
1
100
AcDbSymbolTableRecord
100
AcDbBlockTableRecord
  2
快工房表題欄1
340
0
102
{BLKREFS
331
263A
102
}
  0
BLOCK_RECORD
  5
265B
330
1
100
AcDbSymbolTableRecord
100
AcDbBlockTableRecord
  2
*D3
340
0
  0
BLOCK_RECORD
  5
268F
330
1
100
AcDbSymbolTableRecord
100
AcDbBlockTableRecord
  2
*D4
340
0
  0
BLOCK_RECORD
  5
269B
330
1
100
AcDbSymbolTableRecord
100
AcDbBlockTableRecord
  2
*D5
340
0
  0
BLOCK_RECORD
  5
26A9
330
1
100
AcDbSymbolTableRecord
100
AcDbBlockTableRecord
  2
*D6
340
0
  0
BLOCK_RECORD
  5
26B7
330
1
100
AcDbSymbolTableRecord
100
AcDbBlockTableRecord
  2
*D7
340
0
  0
BLOCK_RECORD
  5
26DB
330
1
100
AcDbSymbolTableRecord
100
AcDbBlockTableRecord
  2
*D8
340
0
  0
BLOCK_RECORD
  5
2717
330
1
100
AcDbSymbolTableRecord
100
AcDbBlockTableRecord
  2
*D9
340
0
  0
BLOCK_RECORD
  5
2738
330
1
100
AcDbSymbolTableRecord
100
AcDbBlockTableRecord
  2
*D10
340
0
  0
BLOCK_RECORD
  5
2744
330
1
100
AcDbSymbolTableRecord
100
AcDbBlockTableRecord
  2
*D11
340
0
  0
BLOCK_RECORD
  5
4672
330
1
100
AcDbSymbolTableRecord
100
AcDbBlockTableRecord
  2
*D12
340
0
  0
BLOCK_RECORD
  5
467E
330
1
100
AcDbSymbolTableRecord
100
AcDbBlockTableRecord
  2
*D13
340
0
  0
BLOCK_RECORD
  5
468C
330
1
100
AcDbSymbolTableRecord
100
AcDbBlockTableRecord
  2
*D14
340
0
  0
BLOCK_RECORD
  5
4698
330
1
100
AcDbSymbolTableRecord
100
AcDbBlockTableRecord
  2
*D15
340
0
  0
BLOCK_RECORD
  5
46D6
330
1
100
AcDbSymbolTableRecord
100
AcDbBlockTableRecord
  2
*D16
340
0
  0
ENDTAB
  0
ENDSEC
  0
SECTION
  2
BLOCKS
  0
BLOCK
  5
6
330
2
100
AcDbEntity
  8
0
100
AcDbBlockBegin
  2
*MODEL_SPACE
 70
     0
 10
0.0
 20
0.0
 30
0.0
  3
*MODEL_SPACE
  1

  0
ENDBLK
  5
C
330
2
100
AcDbEntity
  8
0
100
AcDbBlockEnd
  0
BLOCK
  5
12
330
F
100
AcDbEntity
 67
     1
  8
0
100
AcDbBlockBegin
  2
*PAPER_SPACE
 70
     0
 10
0.0
 20
0.0
 30
0.0
  3
*PAPER_SPACE
  1

  0
ENDBLK
  5
13
330
F
100
AcDbEntity
 67
     1
  8
0
100
AcDbBlockEnd
  0
BLOCK
  5
29
330
28
100
AcDbEntity
  8
0
100
AcDbBlockBegin
  2
_OPEN
 70
     0
 10
0.0
 20
0.0
 30
0.0
  3
_OPEN
  1

  0
LINE
  5
2A
330
28
100
AcDbEntity
  8
0
  6
ByBlock
 62
     0
100
AcDbLine
 10
-1.0
 20
0.1666666666666666
 30
0.0
 11
0.0
 21
0.0
 31
0.0
  0
LINE
  5
2B
330
28
100
AcDbEntity
  8
0
  6
ByBlock
 62
     0
100
AcDbLine
 10
0.0
 20
0.0
 30
0.0
 11
-1.0
 21
-0.1666666666666666
 31
0.0
  0
LINE
  5
2C
330
28
100
AcDbEntity
  8
0
  6
ByBlock
 62
     0
100
AcDbLine
 10
0.0
 20
0.0
 30
0.0
 11
-1.0
 21
0.0
 31
0.0
  0
ENDBLK
  5
2D
330
28
100
AcDbEntity
  8
0
100
AcDbBlockEnd
  0
BLOCK
  5
2F
330
2E
100
AcDbEntity
  8
0
100
AcDbBlockBegin
  2
_DotSmall
 70
     0
 10
0.0
 20
0.0
 30
0.0
  3
_DotSmall
  1

  0
LWPOLYLINE
  5
30
330
2E
100
AcDbEntity
  8
FRAM3
 62
     0
100
AcDbPolyline
 90
        2
 70
     1
 43
0.5
 10
-0.0625
 20
0.0
 42
1.0
 10
0.0625
 20
0.0
 42
1.0
  0
ENDBLK
  5
32
330
2E
100
AcDbEntity
  8
0
100
AcDbBlockEnd
  0
BLOCK
  5
4E
330
4D
100
AcDbEntity
  8
0
100
AcDbBlockBegin
  2
快工房表題欄1
 70
     2
 10
0.0
 20
0.0
 30
0.0
  3
快工房表題欄1
  1

  0
LINE
  5
4F
330
4D
100
AcDbEntity
  8
FRAM3
100
AcDbLine
 10
0.0
 20
0.0
 30
0.0
 11
-377.5
 21
0.0
 31
0.0
  0
LINE
  5
50
330
4D
100
AcDbEntity
  8
外形線
100
AcDbLine
 10
0.0
 20
15.0
 30
0.0
 11
-377.5
 21
15.0
 31
0.0
  0
LINE
  5
51
330
4D
100
AcDbEntity
  8
FRAM3
100
AcDbLine
 10
0.0
 20
22.5
 30
0.0
 11
-377.5
 21
22.5
 31
0.0
  0
LINE
  5
52
330
4D
100
AcDbEntity
  8
FRAM3
100
AcDbLine
 10
0.0
 20
0.0
 30
0.0
 11
0.0
 21
22.5
 31
0.0
  0
LINE
  5
53
330
4D
100
AcDbEntity
  8
外形線
100
AcDbLine
 10
-74.99999999999829
 20
22.5
 30
0.0
 11
-74.99999999999829
 21
-0.0000000000000089
 31
0.0
  0
LINE
  5
54
330
4D
100
AcDbEntity
  8
細線
100
AcDbLine
 10
-59.99999999999829
 20
22.5
 30
0.0
 11
-59.99999999999829
 21
15.0
 31
0.0
  0
LINE
  5
56
330
4D
100
AcDbEntity
  8
外形線
100
AcDbLine
 10
-19.99999999999829
 20
22.5
 30
0.0
 11
-19.99999999999829
 21
15.0
 31
0.0
  0
LINE
  5
57
330
4D
100
AcDbEntity
  8
細線
100
AcDbLine
 10
-9.999999999998292
 20
22.5
 30
0.0
 11
-9.999999999998292
 21
15.0
 31
0.0
  0
LINE
  5
58
330
4D
100
AcDbEntity
  8
細線
100
AcDbLine
 10
-119.9999999999983
 20
22.5
 30
0.0
 11
-119.9999999999983
 21
-0.000000000000016
 31
0.0
  0
LINE
  5
59
330
4D
100
AcDbEntity
  8
外形線
100
AcDbLine
 10
-134.9999999999983
 20
22.5
 30
0.0
 11
-134.9999999999983
 21
-0.0000000000000195
 31
0.0
  0
LINE
  5
5A
330
4D
100
AcDbEntity
  8
細線
100
AcDbLine
 10
-204.9999999999983
 20
22.5
 30
0.0
 11
-204.9999999999983
 21
-0.0000000000000266
 31
0.0
  0
LINE
  5
5B
330
4D
100
AcDbEntity
  8
外形線
100
AcDbLine
 10
-219.9999999999983
 20
22.5
 30
0.0
 11
-219.9999999999983
 21
-0.0000000000000302
 31
0.0
  0
LINE
  5
5C
330
4D
100
AcDbEntity
  8
外形線
100
AcDbLine
 10
-74.99999999999829
 20
7.5
 30
0.0
 11
-377.5
 21
7.5
 31
0.0
  0
LINE
  5
5D
330
4D
100
AcDbEntity
  8
細線
100
AcDbLine
 10
-239.9999999999983
 20
22.5
 30
0.0
 11
-239.9999999999983
 21
-0.0000000000000338
 31
0.0
  0
LINE
  5
5E
330
4D
100
AcDbEntity
  8
外形線
100
AcDbLine
 10
-249.9999999999983
 20
22.5
 30
0.0
 11
-249.9999999999983
 21
-0.0000000000000338
 31
0.0
  0
LINE
  5
5F
330
4D
100
AcDbEntity
  8
細線
100
AcDbLine
 10
-259.9999999999983
 20
22.5
 30
0.0
 11
-259.9999999999983
 21
-0.0000000000000373
 31
0.0
  0
LINE
  5
60
330
4D
100
AcDbEntity
  8
外形線
100
AcDbLine
 10
-269.9999999999983
 20
22.5
 30
0.0
 11
-269.9999999999983
 21
-0.0000000000000373
 31
0.0
  0
LINE
  5
61
330
4D
100
AcDbEntity
  8
外形線
100
AcDbLine
 10
-272.4999999999983
 20
22.5
 30
0.0
 11
-272.4999999999983
 21
-0.0000000000000373
 31
0.0
  0
LINE
  5
62
330
4D
100
AcDbEntity
  8
細線
100
AcDbLine
 10
-302.4999999999983
 20
22.5
 30
0.0
 11
-302.4999999999983
 21
-0.0000000000000409
 31
0.0
  0
LINE
  5
63
330
4D
100
AcDbEntity
  8
FRAM3
100
AcDbLine
 10
-377.5
 20
22.50000000000001
 30
0.0
 11
-377.5
 21
-0.0000000000000018
 31
0.0
  0
LINE
  5
64
330
4D
100
AcDbEntity
  8
細線
100
AcDbLine
 10
-367.5
 20
22.50000000000001
 30
0.0
 11
-367.5
 21
-0.0000000000000018
 31
0.0
  0
HATCH
  5
65
330
4D
100
AcDbEntity
  8
ハッチング
100
AcDbHatch
 10
0.0
 20
0.0
 30
0.0
210
0.0
220
0.0
230
1.0
  2
SOLID
 70
     1
 71
     0
 91
       10
 92
        7
 72
     1
 73
     1
 93
       21
 10
-26.07420226571901
 20
7.372154485630928
 42
-0.19611942909586
 10
-25.87394810911793
 20
7.706250000000012
 42
0.0
 10
-26.54636064812377
 20
7.706250000000012
 42
0.0
 10
-26.38427262089152
 20
8.759822177009437
 42
-0.2322419184055076
 10
-25.96826737790735
 20
9.356249999999988
 42
0.0
 10
-27.32376449427761
 20
9.356249999999988
 42
0.0
 10
-27.57761064812377
 20
7.706250000000012
 42
0.0
 10
-28.51366834043142
 20
7.706250000000012
 42
0.0
 10
-28.65645680196991
 20
6.778124999999986
 42
0.0
 10
-27.7203991096622
 20
6.778124999999986
 42
-0.226693791326603
 10
-28.94996641735452
 20
4.61249999999999
 42
0.0
 10
-29.21967795581612
 20
2.859375
 42
0.1074451760756022
 10
-28.19636064812375
 20
3.684374999999944
 42
0.0
 10
-28.43434141735452
 20
2.137499999999988
 42
0.0
 10
-27.40309141735452
 20
2.137499999999988
 42
0.0
 10
-27.05405295581608
 20
4.406250000000013
 42
0.1676126560887222
 10
-26.56498805480317
 20
4.182046856583617
 42
0.0
 10
-26.34069551878105
 20
5.639948340727471
 42
-0.3342071575959738
 10
-26.80020680196993
 20
6.056250000000034
 42
0.0
 10
-26.68914910966231
 20
6.778124999999986
 42
0.0
 10
-26.16559141735451
 20
6.778124999999986
 42
0.0
 97
        0
 92
        7
 72
     1
 73
     1
 93
       34
 10
-22.19230583944579
 20
8.118749999999977
 42
0.0
 10
-23.49227410966216
 20
8.118749999999977
 42
0.0
 10
-23.3936476208915
 20
8.759822177009382
 42
-0.2322419184055231
 10
-22.97764237790733
 20
9.356249999999988
 42
0.0
 10
-24.23001449427767
 20
9.356249999999988
 42
0.0
 10
-24.42039910966224
 20
8.118749999999977
 42
0.0
 10
-24.76150487889299
 20
8.118749999999977
 42
0.0
 10
-24.61871641735456
 20
9.046875
 42
0.0
 10
-25.23746641735448
 20
9.046875
 42
0.0
 10
-25.3197662899754
 20
8.511925827964276
 42
-0.2111660148334092
 10
-25.76895680196992
 20
7.809374999999986
 42
0.0
 10
-25.95934141735455
 20
6.571875000000004
 42
0.1666300833145322
 10
-25.086328676157
 20
7.190625000000012
 42
0.0
 10
-24.56318757120073
 20
7.190625000000012
 42
0.0
 10
-24.70597603273916
 20
6.262499999999986
 42
0.0
 10
-25.90381257120072
 20
6.262499999999986
 42
0.0
 10
-26.06246641735459
 20
5.231249999999987
 42
0.0
 10
-25.17400487889302
 20
5.231249999999987
 42
-0.3102229334322764
 10
-26.47496641735455
 20
3.581249999999982
 42
0.0
 10
-26.68121641735456
 20
2.137499999999973
 42
0.2324922688954901
 10
-25.18193757120071
 20
3.168750000000009
 42
0.0
 10
-25.34059141735458
 20
2.137499999999988
 42
0.0
 10
-24.4124664173545
 20
2.137499999999988
 42
0.0
 10
-24.19035103273917
 20
3.581249999999982
 42
0.2567000546080083
 10
-23.13530295581609
 20
2.13749999999996
 42
0.0
 10
-22.89732218658532
 20
3.684374999999966
 42
-0.1558025132850893
 10
-23.73025487889299
 20
5.231249999999987
 42
0.0
 10
-22.65934141735454
 20
5.231249999999987
 42
0.0
 10
-22.59244569781464
 20
5.666072177009398
 42
-0.2322419184055211
 10
-22.17644045483047
 20
6.262499999999986
 42
0.0
 10
-23.77785103273914
 20
6.262499999999986
 42
0.0
 10
-23.63506257120059
 20
7.190625000000012
 42
0.0
 10
-22.65934141735454
 20
7.190625000000012
 42
0.0
 10
-22.60831108243002
 20
7.522322177009392
 42
-0.2322419184055296
 97
        0
 92
        7
 72
     1
 73
     1
 93
       18
 10
-15.85758992858382
 20
7.522322177009646
 42
-0.2322419184054318
 10
-15.4415846855997
 20
8.118749999999977
 42
0.0
 10
-16.66222603273911
 20
8.118749999999977
 42
0.0
 10
-16.56359954396845
 20
8.759822177009382
 42
-0.2322419184055231
 10
-16.14759430098428
 20
9.356249999999988
 42
0.0
 10
-17.60621641735452
 20
9.356249999999988
 42
0.0
 10
-17.7966010327392
 20
8.118749999999977
 42
0.0
 10
-21.7470818019699
 20
8.118749999999977
 42
0.0
 10
-21.93746641735458
 20
6.881250000000022
 42
0.0
 10
-17.98698564812378
 20
6.881250000000022
 42
0.0
 10
-18.42489297598234
 20
4.034852368919459
 42
0.4796619541679998
 10
-16.68602410966224
 20
2.137499999999981
 42
0.0
 10
-16.55566685166076
 20
2.984822177009468
 42
-0.2322419184055069
 10
-16.13966160867659
 20
3.581250000000011
 42
0.0
 10
-16.33422387824356
 20
3.581250000000011
 42
-0.4837100395248252
 10
-17.21447295220719
 20
4.529145023457751
 42
0.0
 10
-16.8526106481238
 20
6.881250000000022
 42
0.0
 10
-15.95621641735448
 20
6.881250000000022
 42
0.0
 97
        0
 92
        7
 72
     1
 73
     1
 93
       14
 10
-18.68886572725745
 20
5.928404485631013
 42
-0.1961194290957944
 10
-18.48861157065641
 20
6.262499999999986
 42
0.0
 10
-21.81847603273917
 20
6.262499999999986
 42
0.0
 10
-21.99299526350836
 20
5.128125000000012
 42
0.0
 10
-20.90621641735453
 20
5.128125000000012
 42
0.0
 10
-21.1441971865853
 20
3.581250000000011
 42
0.0
 10
-22.23097603273908
 20
3.581250000000011
 42
0.0
 10
-22.45309141735453
 20
2.137499999999988
 42
0.0
 10
-20.00982218658521
 20
2.137499999999988
 42
0.392787707958554
 10
-18.84371641735453
 20
3.890625000000028
 42
-0.3401039189812984
 10
-19.39107218658518
 20
3.581250000000011
 42
0.0
 10
-20.00982218658538
 20
3.581250000000011
 42
0.0
 10
-19.77184141735455
 20
5.128125000000012
 42
0.0
 10
-18.81198564812371
 20
5.128125000000012
 42
0.0
 97
        0
 92
        7
 72
     1
 73
     1
 93
       12
 10
-11.06967795581607
 20
9.150000000000012
 42
-0.2073113061763038
 10
-10.80160915968935
 20
9.5625
 42
0.0
 10
-12.86246641735448
 20
9.5625
 42
-0.2782695505621444
 10
-15.22640872504684
 20
8.118750000000003
 42
0.0
 10
-15.39299526350839
 20
7.035937499999994
 42
0.0628018762857535
 10
-14.46784044787881
 20
7.11975630159221
 42
0.0
 10
-14.61559141735455
 20
6.159375000000012
 42
0.0
 10
-10.49059141735455
 20
6.159375000000012
 42
0.0
 10
-10.32515231602684
 20
7.234729158630115
 42
0.066390405683827
 10
-9.419677955816096
 20
7.035937499999986
 42
0.0
 10
-9.344849543968448
 20
7.522322177009484
 42
-0.2110926856834859
 10
-8.985690162824937
 20
8.084234752348335
 42
-0.1964466345958966
 97
        0
 92
       22
 72
     1
 73
     1
 93
        3
 10
-10.476482856892
 20
7.293749999999986
 42
0.0
 10
-13.89763829148916
 20
7.293749999999986
 42
0.1569098860166357
 10
-12.14059141735458
 20
8.737500000000025
 42
0.1611642193718136
 97
        0
 92
        7
 72
     1
 73
     1
 93
       13
 10
-9.293748147138103
 20
5.746874999999986
 42
0.0
 10
-15.59131257120066
 20
5.746874999999986
 42
0.0
 10
-15.74996641735458
 20
4.715624999999987
 42
0.0
 10
-14.51246641735446
 20
4.715624999999987
 42
0.0
 10
-14.92496641735448
 20
3.478124999999976
 42
0.0
 10
-15.64684141735461
 20
3.478124999999976
 42
0.0
 10
-15.85309141735456
 20
2.137499999999988
 42
0.0
 10
-11.3627340610177
 20
2.530355363859698
 42
0.0
 10
-11.31559141735454
 20
2.137499999999988
 42
0.0
 10
-10.28434141735448
 20
2.137499999999988
 42
0.0
 10
-10.59371641735453
 20
4.715624999999987
 42
0.0
 10
-9.77664910966223
 20
4.715624999999987
 42
0.0
 10
-9.70975339012233
 20
5.150447177009396
 42
-0.2322419184055327
 97
        0
 92
       23
 72
     0
 73
     1
 93
        4
 10
-11.62496641735453
 20
4.715624999999987
 10
-11.51025256329967
 20
3.759676216209576
 10
-13.65619797737702
 20
3.571930319932398
 10
-13.2749664173545
 20
4.715624999999987
 97
        0
 92
        7
 72
     1
 73
     1
 93
       20
 10
-5.835094300984337
 20
8.015625
 42
0.0
 10
-6.801889494277587
 20
8.015625
 42
0.0
 10
-6.687397620891487
 20
8.759822177009452
 42
-0.2322419184054919
 10
-6.271392377907375
 20
9.356249999999988
 42
0.0
 10
-7.626889494277518
 20
9.356249999999988
 42
0.0
 10
-7.833139494277587
 20
8.015625
 42
0.0
 10
-8.666072186585322
 20
8.015625
 42
0.0
 10
-8.84059141735446
 20
6.881250000000022
 42
0.0
 10
-7.603091417354562
 20
6.881250000000022
 42
-0.3975794541192388
 10
-9.253091417354539
 20
5.128125000000025
 42
0.0
 10
-9.356216417354515
 20
3.478124999999976
 42
0.050975959069628
 10
-8.46051689059044
 20
3.937671923966696
 42
0.0
 10
-8.737466417354539
 20
2.137499999999988
 42
0.0
 10
-7.706216417354482
 20
2.137499999999988
 42
0.0
 10
-7.357177955816097
 20
4.406249999999809
 42
0.1667096634495888
 10
-6.674966417354539
 20
3.58124999999999
 42
0.0
 10
-6.468716417354527
 20
4.921874999999936
 42
-0.169934128212657
 10
-6.852524180125102
 20
5.64374999999994
 42
0.0912718768188116
 10
-6.263813683024692
 20
7.336555273144128
 42
0.0
 10
-6.251099543968392
 20
7.419197177009749
 42
-0.2322419184053964
 97
        0
 92
        7
 72
     1
 73
     1
 93
       19
 10
-2.463700070214997
 20
7.293749999999986
 42
0.0
 10
-3.819197186585256
 20
7.293749999999986
 42
0.0
 10
-3.593647620891488
 20
8.759822177009432
 42
-0.2322419184055097
 10
-3.177642377907318
 20
9.356249999999988
 42
0.0
 10
-4.533139494277577
 20
9.356249999999988
 42
0.0
 10
-4.850447186585255
 20
7.293749999999986
 42
0.0
 10
-5.881697186585255
 20
7.293749999999986
 42
0.0
 10
-6.056216417354504
 20
6.159375000000012
 42
0.0
 10
-5.024966417354561
 20
6.159375000000012
 42
0.0
 10
-5.437466417354471
 20
3.478124999999976
 42
0.0
 10
-6.571841417354504
 20
3.478124999999976
 42
0.0
 10
-6.778091417354517
 20
2.137499999999988
 42
0.0
 10
-3.374966417354584
 20
2.137499999999988
 42
0.0
 10
-3.260474543968483
 20
2.881697177009441
 42
-0.2322419184055034
 10
-2.844469300984314
 20
3.478124999999976
 42
0.0
 10
-4.406216417354528
 20
3.478124999999976
 42
0.0
 10
-3.993716417354505
 20
6.159375000000012
 42
0.0
 10
-2.962466417354505
 20
6.159375000000012
 42
0.0
 10
-2.879705313199223
 20
6.697322177009398
 42
-0.2322419184055305
 97
        0
 75
     0
 76
     1
 47
0.0346350791885995
 98
       10
 10
-27.04690535477903
 20
7.113454846410603
 10
-24.37784500400403
 20
7.667616264997604
 10
-18.69309334632635
 20
7.494439933587272
 10
-20.07961717083845
 20
5.347065028630594
 10
-11.20585673960431
 20
8.533493185505902
 10
-11.20585673960431
 20
8.533493185505902
 10
-12.41906707464159
 20
5.243159466611587
 10
-12.41906707464159
 20
5.243159466611587
 10
-7.254261851155661
 20
7.529075910350911
 10
-4.169242364438105
 20
6.767103367725892
450
        0
451
        0
460
0.0
461
0.0
452
        0
462
0.0
453
        0
470

  0
HATCH
  5
66
330
4D
100
AcDbEntity
  8
ハッチング
100
AcDbHatch
 10
0.0
 20
0.0
 30
0.0
210
0.0
220
0.0
230
1.0
  2
SOLID
 70
     1
 71
     0
 91
        7
 92
        7
 72
     1
 73
     1
 93
       19
 10
-56.65886064812378
 20
10.38749999999996
 42
0.0
 10
-56.48434141735453
 20
8.634374999999977
 42
0.0
 10
-55.34996641735454
 20
8.634374999999977
 42
0.0
 10
-55.49886941238979
 20
10.13017326830859
 42
-0.2624151627091775
 10
-55.29515542585355
 20
10.59375
 42
0.0
 10
-56.627129878893
 20
10.59375
 42
0.0
 10
-56.36984954396847
 20
12.2660721770095
 42
-0.2322419184055028
 10
-55.95384430098432
 20
12.86250000000001
 42
0.0
 10
-57.41246641735457
 20
12.86250000000001
 42
0.0
 10
-57.761504878893
 20
10.59375
 42
0.0
 10
-58.68962987889299
 20
10.59375
 42
-0.1483440275376827
 10
-59.53254632448853
 20
8.609923750387862
 42
-0.154378113515778
 10
-59.63740133718435
 20
8.542990215347932
 42
0.0
 10
-59.68121641735456
 20
8.531249999999991
 42
0.0
 10
-59.88746641735456
 20
6.984374999999985
 42
0.208712747991641
 10
-58.40776478414918
 20
8.300013088322883
 42
0.0
 10
-57.96775487889298
 20
9.253125000000004
 42
0.0
 10
-59.0624664173545
 20
2.137499999999988
 42
0.0
 10
-57.92809141735454
 20
2.137499999999988
 42
0.0
 97
        0
 92
        7
 72
     1
 73
     1
 93
       26
 10
-49.76984954396845
 20
10.82232217700947
 42
-0.2322419184054904
 10
-49.35384430098436
 20
11.41874999999999
 42
0.0
 10
-51.84371641735451
 20
11.41874999999999
 42
0.0
 10
-51.7133591593531
 20
12.26607217700946
 42
-0.2322419184055153
 10
-51.29735391636895
 20
12.86250000000001
 42
0.0
 10
-53.0137885327392
 20
12.86250000000001
 42
0.0
 10
-53.23590391735455
 20
11.41874999999999
 42
0.0
 10
-54.93746641735453
 20
11.41874999999999
 42
0.0
 10
-55.15958180196992
 20
9.975000000000015
 42
0.0
 10
-53.4580193019699
 20
9.975000000000024
 42
0.0
 10
-53.71186545581611
 20
8.324999999999986
 42
0.0
 10
-55.71487026350837
 20
8.324999999999995
 42
0.0
 10
-55.96871641735454
 20
6.675000000000012
 42
0.0
 10
-53.96571160966221
 20
6.675000000000012
 42
-0.3989130476233108
 10
-56.79371641735452
 20
4.30312499999998
 42
0.0
 10
-57.20621641735453
 20
2.137499999999981
 42
0.2606523530881478
 10
-53.49371641735458
 20
5.231249999999888
 42
0.3954488183657808
 10
-50.60621641735451
 20
2.137499999999973
 42
0.0
 10
-50.32685509604613
 20
3.953348588504759
 42
-0.3701783109170677
 10
-49.91915177076524
 20
4.303125000000021
 42
0.0
 10
-50.27304334043098
 20
4.303125000000021
 42
-0.5078276492098521
 10
-52.36727410966222
 20
6.675000000000012
 42
0.0
 10
-49.98746641735453
 20
6.675000000000012
 42
0.0
 10
-49.8253783901223
 20
7.728572177009496
 42
-0.2322419184054871
 10
-49.40937314713821
 20
8.324999999999986
 42
0.0
 10
-50.1540529558161
 20
8.324999999999986
 42
0.0
 97
        0
 92
       22
 72
     0
 73
     1
 93
        4
 10
-52.06583180196993
 20
9.975000000000015
 10
-51.24083180196992
 20
9.975000000000015
 10
-51.49467795581609
 20
8.324999999999986
 10
-52.3196779558161
 20
8.324999999999986
 97
        0
 92
        7
 72
     1
 73
     1
 93
       14
 10
-39.73499377473769
 20
11.02857217700948
 42
-0.2322419184054953
 10
-39.31898853175359
 20
11.625
 42
0.0
 10
-47.71871641735454
 20
11.625
 42
0.0
 10
-47.95669718658529
 20
10.07812499999999
 42
0.0
 10
-44.72809141735456
 20
10.07812500000001
 42
0.0
 10
-45.63241834043146
 20
4.199999999999987
 42
0.0
 10
-49.46390872504686
 20
4.199999999999987
 42
0.0
 10
-49.78121641735453
 20
2.137499999999988
 42
0.0
 10
-40.8093414173545
 20
2.137499999999988
 42
0.0
 10
-40.58379185166073
 20
3.603572177009475
 42
-0.2322419184054904
 10
-40.16778660867665
 20
4.199999999999987
 42
0.0
 10
-44.18866834043149
 20
4.199999999999987
 42
0.0
 10
-43.28434141735455
 20
10.078125
 42
0.0
 10
-39.88121641735455
 20
10.078125
 42
0.0
 97
        0
 92
        7
 72
     1
 73
     1
 93
        5
 10
-29.42692122406136
 20
11.83124999999995
 42
0.0
 10
-37.81871641735458
 20
11.83125000000002
 42
0.0
 10
-37.9479777809909
 20
10.69375
 42
0.0
 10
-29.92616834043145
 20
10.69375000000001
 42
0.0
 10
-29.8429264670454
 20
11.23482217700948
 42
-0.2322419184054714
 97
        0
 92
        7
 72
     1
 73
     1
 93
       34
 10
-29.664901993292
 20
10.28437500000001
 42
0.0
 10
-37.99449766735455
 20
10.28437500000001
 42
0.0
 10
-38.33434141735452
 20
7.293750000000287
 42
-0.0971570063617317
 10
-39.20769177140424
 20
4.907595153308561
 42
-0.2356996378951236
 10
-39.67496641735454
 20
4.612500000000018
 42
0.0
 10
-40.08746641735456
 20
2.137499999999981
 42
0.2260470110542068
 10
-38.64371641735504
 20
3.168749999999049
 42
0.0837859202281271
 10
-37.20973610002078
 20
7.754687500000024
 42
0.0
 10
-34.29708180196989
 20
7.754687500000017
 42
0.0
 10
-34.36799526350842
 20
7.293749999999986
 42
0.0
 10
-36.91438949427761
 20
7.293749999999986
 42
0.0
 10
-37.08145680196992
 20
6.207812500000024
 42
0.0
 10
-35.74510418513621
 20
6.207812500000024
 42
-0.4276693759202568
 10
-37.71559141735453
 20
4.612499999999997
 42
0.0
 10
-38.12809141735454
 20
2.137500000000001
 42
0.2539988046870522
 10
-35.61037796716107
 20
3.680154058953121
 42
0.0
 10
-34.92504389043559
 20
4.867187499999978
 42
0.0
 10
-32.33842526694562
 20
4.867187499999978
 42
-0.3989511641034889
 10
-33.07496641735428
 20
4.199999999999987
 42
0.0
 10
-34.31246641735453
 20
4.199999999999987
 42
0.0
 10
-34.51871641735454
 20
2.137499999999988
 42
0.0
 10
-33.57569613651576
 20
2.220003584048412
 42
0.3156073772329689
 10
-31.21871641735447
 20
4.200000000000372
 42
0.0
 10
-31.06456108243003
 20
5.202009677009448
 42
-0.2322419184055091
 10
-30.64855583944588
 20
5.798437499999977
 42
0.0
 10
-34.56631257120069
 20
5.798437499999977
 42
0.0
 10
-34.50333180196996
 20
6.207812500000024
 42
0.0
 10
-30.37833180196994
 20
6.207812499999952
 42
0.0
 10
-30.3030226208915
 20
6.697322177009539
 42
-0.2322419184054718
 10
-29.88701737790741
 20
7.293749999999986
 42
0.0
 10
-33.13049526350842
 20
7.293749999999986
 42
0.0
 10
-33.05958180196988
 20
7.754687500000024
 42
0.0
 10
-30.37833180196994
 20
7.754687500000024
 42
0.0
 10
-30.08090723627617
 20
9.687947177009512
 42
-0.2322419184055036
 97
        0
 92
       22
 72
     0
 73
     1
 93
        4
 10
-31.2033318019699
 20
9.249999999999976
 10
-31.27424526350842
 20
8.789062499999991
 10
-37.04924526350839
 20
8.7890625
 10
-36.97833180196994
 20
9.249999999999973
 97
        0
 75
     0
 76
     1
 47
0.0653315833411799
 98
        7
 10
-57.36633761113886
 20
9.263762766385347
 10
-52.46250126509028
 20
10.4397311784109
 10
-52.46250126509028
 20
10.4397311784109
 10
-44.15867201272146
 20
10.57039468496798
 10
-36.18176459620907
 20
11.28904213528886
 10
-35.7894576885252
 20
9.786415743617617
 10
-35.7894576885252
 20
9.786415743617617
450
        0
451
        0
460
0.0
461
0.0
452
        0
462
0.0
453
        0
470

  0
HATCH
  5
67
330
4D
100
AcDbEntity
  8
ハッチング
100
AcDbHatch
 10
0.0
 20
0.0
 30
0.0
210
0.0
220
0.0
230
1.0
  2
SOLID
 70
     1
 71
     0
 91
        5
 92
        7
 72
     1
 73
     1
 93
        8
 10
-61.74371995951752
 20
11.86249887096129
 42
0.4142135623730951
 10
-62.74371995951753
 20
12.8624988709613
 42
0.0
 10
-71.46875
 20
12.8624988709613
 42
0.4142135623730951
 10
-72.46875
 20
11.8624988709613
 42
0.0
 10
-72.46875
 20
3.137499999999988
 42
0.4142135623730951
 10
-71.46875
 20
2.137499999999988
 42
0.0
 10
-62.74371995951753
 20
2.137499999999988
 42
0.4142135623730977
 10
-61.74371995951752
 20
3.137499999999988
 42
0.0
 97
        0
 92
       22
 72
     0
 73
     1
 93
       11
 10
-68.010100819699
 20
9.645008962716566
 10
-69.80996467440139
 20
7.499996921826546
 10
-68.01010081969905
 20
5.354996946523669
 10
-69.06011149509793
 20
5.354996946523669
 10
-70.85998041190129
 20
7.500002954620112
 10
-70.85998041190129
 20
5.354996946523669
 10
-71.66433504189786
 20
5.354996946523669
 10
-71.66433504189786
 20
9.645008962716588
 10
-70.85998041190129
 20
9.645008962716588
 10
-70.85998041190129
 20
7.500002954620112
 10
-69.06011149509793
 20
9.645008962716588
 97
        0
 92
       22
 72
     0
 73
     1
 93
        8
 10
-66.21751149428689
 20
9.645008962716588
 10
-65.1450285996072
 20
9.645008962716588
 10
-63.62060775761517
 20
5.354996946523669
 10
-64.47428061381907
 20
5.354996946523669
 10
-64.85538331064614
 20
6.427493917761296
 10
-66.5071970019852
 20
6.427493917761296
 10
-66.88829969881216
 20
5.354996946523669
 10
-67.74198260970019
 20
5.354996946523669
 97
        0
 92
        6
 72
     0
 73
     1
 93
        3
 10
-65.68131529302615
 20
8.75176288027273
 10
-65.14120205260173
 20
7.231876700873839
 10
-66.22134232898338
 20
7.231876700873839
 97
        0
 92
       22
 72
     0
 73
     1
 93
        4
 10
-63.35247949293209
 20
9.645008962716588
 10
-62.54812486293559
 20
9.645008962716588
 10
-62.54812486293559
 20
5.354996946523669
 10
-63.35247949293211
 20
5.354996946523669
 97
        0
 75
     0
 76
     1
 47
0.024932377379025
 98
        5
 10
-67.36791283061325
 20
10.96177169871634
 10
-67.36791283061325
 20
10.96177169871634
 10
-67.36791283061325
 20
10.96177169871634
 10
-67.36791283061325
 20
10.96177169871634
 10
-67.36791283061325
 20
10.96177169871634
450
        0
451
        0
460
0.0
461
0.0
452
        0
462
0.0
453
        0
470

  0
MTEXT
  5
68
330
4D
100
AcDbEntity
  8
文字
100
AcDbMText
 10
-14.99999999999829
 20
18.75
 30
0.0
 40
2.5
 41
10.0
 71
     5
 72
     5
  1
SIZE
 73
     1
 44
1.0
  0
MTEXT
  5
69
330
4D
100
AcDbEntity
  8
文字
100
AcDbMText
 10
-67.49999999999829
 20
18.75
 30
0.0
 40
2.5
 41
15.0
 71
     5
 72
     5
  1
JOB
 73
     1
 44
1.0
  0
MTEXT
  5
6A
330
4D
100
AcDbEntity
  8
文字
100
AcDbMText
 10
-127.4999999999983
 20
18.75
 30
0.0
 40
2.5
 41
15.0
 71
     5
 72
     5
  1
図面番号
 73
     1
 44
1.0
  0
MTEXT
  5
6B
330
4D
100
AcDbEntity
  8
文字
100
AcDbMText
 10
-127.4999999999983
 20
11.25
 30
0.0
 40
2.5
 41
15.0
 71
     5
 72
     5
  1
管理番号
 73
     1
 44
1.0
  0
MTEXT
  5
6C
330
4D
100
AcDbEntity
  8
文字
100
AcDbMText
 10
-127.4999999999983
 20
3.75
 30
0.0
 40
2.5
 41
15.0
 71
     5
 72
     5
  1
年 月 日
 73
     1
 44
1.0
  0
MTEXT
  5
6D
330
4D
100
AcDbEntity
  8
文字
100
AcDbMText
 10
-212.4999999999983
 20
18.75
 30
0.0
 40
2.5
 41
15.0
 71
     5
 72
     5
  1
製品名称
 73
     1
 44
1.0
  0
MTEXT
  5
6E
330
4D
100
AcDbEntity
  8
文字
100
AcDbMText
 10
-212.4999999999983
 20
11.25
 30
0.0
 40
2.5
 41
15.0
 71
     5
 72
     5
  1
型    番
 73
     1
 44
1.0
  0
MTEXT
  5
6F
330
4D
100
AcDbEntity
  8
文字
100
AcDbMText
 10
-212.4999999999983
 20
3.750000000000001
 30
0.0
 40
2.5
 41
15.0
 71
     5
 72
     5
  1
物件名称
 73
     1
 44
1.0
  0
MTEXT
  5
70
330
4D
100
AcDbEntity
  8
文字
100
AcDbMText
 10
-244.9999999999983
 20
18.75
 30
0.0
 40
2.5
 41
10.0
 71
     5
 72
     5
  1
単 位
 73
     1
 44
1.0
  0
MTEXT
  5
71
330
4D
100
AcDbEntity
  8
文字
100
AcDbMText
 10
-244.9999999999983
 20
11.25
 30
0.0
 40
2.5
 41
10.0
 71
     5
 72
     5
  1
縮 尺
 73
     1
 44
1.0
  0
MTEXT
  5
72
330
4D
100
AcDbEntity
  8
文字
100
AcDbMText
 10
-244.9999999999983
 20
3.750000000000001
 30
0.0
 40
2.5
 41
10.0
 71
     5
 72
     5
  1
番 号
 73
     1
 44
1.0
  0
MTEXT
  5
73
330
4D
100
AcDbEntity
  8
文字
100
AcDbMText
 10
-229.9999999999983
 20
18.75
 30
0.0
 40
3.0
 41
20.0
 71
     5
 72
     5
  1
ｍｍ
 73
     1
 44
1.0
  0
MTEXT
  5
74
330
4D
100
AcDbEntity
  8
文字
100
AcDbMText
 10
-264.9999999999983
 20
18.75000000000001
 30
0.0
 40
2.5
 41
10.0
 71
     5
 72
     5
  1
設 計
 73
     1
 44
1.0
  0
MTEXT
  5
75
330
4D
100
AcDbEntity
  8
文字
100
AcDbMText
 10
-264.9999999999983
 20
11.25000000000001
 30
0.0
 40
2.5
 41
10.0
 71
     5
 72
     5
  1
製 図
 73
     1
 44
1.0
  0
MTEXT
  5
76
330
4D
100
AcDbEntity
  8
文字
100
AcDbMText
 10
-264.9999999999983
 20
3.750000000000008
 30
0.0
 40
2.5
 41
10.0
 71
     5
 72
     5
  1
検 図
 73
     1
 44
1.0
  0
MTEXT
  5
77
330
4D
100
AcDbEntity
  8
文字
100
AcDbMText
 10
-372.5
 20
18.75000000000001
 30
0.0
 40
2.5
 41
10.0
 71
     5
 72
     5
  1
符 号
 73
     1
 44
1.0
  0
MTEXT
  5
78
330
4D
100
AcDbEntity
  8
文字
100
AcDbMText
 10
-287.4999999999983
 20
18.75
 30
0.0
 40
2.5
 41
30.0
 71
     5
 72
     5
  1
年 月 日
 73
     1
 44
1.0
  0
MTEXT
  5
79
330
4D
100
AcDbEntity
  8
文字
100
AcDbMText
 10
-335.0
 20
18.75
 30
0.0
 40
2.5
 41
65.0
 71
     5
 72
     5
  1
改 定 事 項
 73
     1
 44
1.0
  0
ATTDEF
  5
7A
330
4D
100
AcDbEntity
  8
文字
100
AcDbText
 10
-4.999999999998293
 20
17.5
 30
0.0
 40
2.5
  1

 72
     1
 11
-4.999999999998293
 21
18.75
 31
0.0
100
AcDbAttributeDefinition
  3
SIZE
  2
A*
 70
     0
 74
     2
  0
ATTDEF
  5
7B
330
4D
100
AcDbEntity
  8
文字
100
AcDbText
 10
-39.99999999999829
 20
17.5
 30
0.0
 40
2.5
  1

 72
     1
 11
-39.99999999999829
 21
18.75
 31
0.0
100
AcDbAttributeDefinition
  3
JOB
  2
JOB
 70
     0
 74
     2
  0
ATTDEF
  5
7C
330
4D
100
AcDbEntity
  8
文字
100
AcDbText
 10
-97.49999999999829
 20
17.5
 30
0.0
 40
2.5
  1

 72
     1
 11
-97.49999999999829
 21
18.75
 31
0.0
100
AcDbAttributeDefinition
  3
図面番号
  2
図面番号
 70
     0
 74
     2
  0
ATTDEF
  5
7D
330
4D
100
AcDbEntity
  8
文字
100
AcDbText
 10
-97.49999999999829
 20
9.999999999999991
 30
0.0
 40
2.5
  1

 72
     1
 11
-97.49999999999829
 21
11.24999999999999
 31
0.0
100
AcDbAttributeDefinition
  3
管理番号
  2
管理番号
 70
     0
 74
     2
  0
ATTDEF
  5
7E
330
4D
100
AcDbEntity
  8
文字
100
AcDbText
 10
-97.49999999999829
 20
2.5
 30
0.0
 40
2.5
  1

 72
     1
 11
-97.49999999999829
 21
3.75
 31
0.0
100
AcDbAttributeDefinition
  3
年月日
  2
年月日
 70
     0
 74
     2
  0
ATTDEF
  5
7F
330
4D
100
AcDbEntity
  8
文字
100
AcDbText
 10
-169.9999999999983
 20
17.5
 30
0.0
 40
2.5
  1

 72
     1
 11
-169.9999999999983
 21
18.75
 31
0.0
100
AcDbAttributeDefinition
  3
製品名称
  2
製品名称
 70
     0
 74
     2
  0
ATTDEF
  5
80
330
4D
100
AcDbEntity
  8
文字
100
AcDbText
 10
-169.9999999999983
 20
9.99999999999998
 30
0.0
 40
2.5
  1

 72
     1
 11
-169.9999999999983
 21
11.24999999999998
 31
0.0
100
AcDbAttributeDefinition
  3
型番
  2
型番
 70
     0
 74
     2
  0
ATTDEF
  5
81
330
4D
100
AcDbEntity
  8
文字
100
AcDbText
 10
-169.9999999999983
 20
2.5
 30
0.0
 40
2.5
  1

 72
     1
 11
-169.9999999999983
 21
3.75
 31
0.0
100
AcDbAttributeDefinition
  3
物件名称
  2
物件名称
 70
     0
 74
     2
  0
ATTDEF
  5
82
330
4D
100
AcDbEntity
  8
文字
100
AcDbText
 10
-229.9999999999982
 20
9.999999999999991
 30
0.0
 40
2.5
  1

 72
     1
 11
-229.9999999999982
 21
11.24999999999999
 31
0.0
100
AcDbAttributeDefinition
  3
縮尺
  2
縮尺
 70
     0
 74
     2
  0
ATTDEF
  5
83
330
4D
100
AcDbEntity
  8
文字
100
AcDbText
 10
-229.9999999999982
 20
2.5
 30
0.0
 40
2.5
  1

 72
     1
 11
-229.9999999999982
 21
3.75
 31
0.0
100
AcDbAttributeDefinition
  3
番号
  2
番号
 70
     0
 74
     2
  0
ATTDEF
  5
84
330
4D
100
AcDbEntity
  8
文字
100
AcDbText
 10
-254.9999999999982
 20
17.5
 30
0.0
 40
2.5
  1

 72
     1
 11
-254.9999999999982
 21
18.75
 31
0.0
100
AcDbAttributeDefinition
  3
設計
  2
設計
 70
     0
 74
     2
  0
ATTDEF
  5
85
330
4D
100
AcDbEntity
  8
文字
100
AcDbText
 10
-254.9999999999982
 20
9.999999999999991
 30
0.0
 40
2.5
  1

 72
     1
 11
-254.9999999999982
 21
11.24999999999999
 31
0.0
100
AcDbAttributeDefinition
  3
製図
  2
製図
 70
     0
 74
     2
  0
ATTDEF
  5
86
330
4D
100
AcDbEntity
  8
文字
100
AcDbText
 10
-254.9999999999982
 20
2.5
 30
0.0
 40
2.5
  1

 72
     1
 11
-254.9999999999982
 21
3.75
 31
0.0
100
AcDbAttributeDefinition
  3
検図
  2
検図
 70
     0
 74
     2
  0
ATTDEF
  5
87
330
4D
100
AcDbEntity
  8
文字
100
AcDbText
 10
-372.5
 20
9.999999999999991
 30
0.0
 40
2.5
  1

 72
     1
 11
-372.5
 21
11.24999999999999
 31
0.0
100
AcDbAttributeDefinition
  3
符号１
  2
符号１
 70
     0
 74
     2
  0
ATTDEF
  5
88
330
4D
100
AcDbEntity
  8
文字
100
AcDbText
 10
-335.0
 20
10.0
 30
0.0
 40
2.5
  1

 72
     1
 11
-335.0
 21
11.25
 31
0.0
100
AcDbAttributeDefinition
  3
改定事項１
  2
改定事項１
 70
     0
 74
     2
  0
ATTDEF
  5
89
330
4D
100
AcDbEntity
  8
文字
100
AcDbText
 10
-287.4999999999983
 20
9.999999999999991
 30
0.0
 40
2.5
  1

 72
     1
 11
-287.4999999999983
 21
11.24999999999999
 31
0.0
100
AcDbAttributeDefinition
  3
改定年月日１
  2
改定年月日１
 70
     0
 74
     2
  0
ATTDEF
  5
8A
330
4D
100
AcDbEntity
  8
文字
100
AcDbText
 10
-372.5
 20
2.5
 30
0.0
 40
2.5
  1

 72
     1
 11
-372.5
 21
3.75
 31
0.0
100
AcDbAttributeDefinition
  3
符号２
  2
符号２
 70
     0
 74
     2
  0
ATTDEF
  5
8B
330
4D
100
AcDbEntity
  8
文字
100
AcDbText
 10
-335.0
 20
2.5
 30
0.0
 40
2.5
  1

 72
     1
 11
-335.0
 21
3.75
 31
0.0
100
AcDbAttributeDefinition
  3
改定事項２
  2
改定事項２
 70
     0
 74
     2
  0
ATTDEF
  5
8C
330
4D
100
AcDbEntity
  8
文字
100
AcDbText
 10
-287.4999999999983
 20
2.5
 30
0.0
 40
2.5
  1

 72
     1
 11
-287.4999999999983
 21
3.75
 31
0.0
100
AcDbAttributeDefinition
  3
改定年月日２
  2
改定年月日２
 70
     0
 74
     2
  0
ENDBLK
  5
8D
330
4D
100
AcDbEntity
  8
0
100
AcDbBlockEnd
  0
BLOCK
  5
265C
330
265B
100
AcDbEntity
  8
0
100
AcDbBlockBegin
  2
*D3
 70
     1
 10
0.0
 20
0.0
 30
0.0
  3
*D3
  1

  0
LINE
  5
5A69
330
265B
100
AcDbEntity
  8
寸法線
440
 16777216
100
AcDbLine
 10
1150.586624768555
 20
2280.61417002838
 30
0.0
 11
1150.586624768555
 21
2595.614170028381
 31
0.0
  0
LINE
  5
5A6A
330
265B
100
AcDbEntity
  8
寸法線
440
 16777216
100
AcDbLine
 10
1500.586624768555
 20
2280.61417002838
 30
0.0
 11
1500.586624768555
 21
2595.614170028381
 31
0.0
  0
LINE
  5
5A6B
330
265B
100
AcDbEntity
  8
寸法線
440
 16777216
100
AcDbLine
 10
1150.586624768555
 20
2595.614170028381
 30
0.0
 11
1500.586624768555
 21
2595.614170028381
 31
0.0
  0
INSERT
  5
5A6C
330
265B
100
AcDbEntity
  8
寸法線
440
 16777216
100
AcDbBlockReference
  2
_DotSmall
 10
1150.586624768555
 20
2595.614170028381
 30
0.0
 41
30.0
 42
30.0
 43
30.0
 50
180.0
  0
INSERT
  5
5A6D
330
265B
100
AcDbEntity
  8
寸法線
440
 16777216
100
AcDbBlockReference
  2
_DotSmall
 10
1500.586624768555
 20
2595.614170028381
 30
0.0
 41
30.0
 42
30.0
 43
30.0
  0
MTEXT
  5
5A6E
330
265B
100
AcDbEntity
  8
寸法線
 62
     7
440
 16777216
100
AcDbMText
 10
1325.586624768555
 20
2620.614170028381
 30
0.0
 40
30.0
 41
0.0
 71
     5
 72
     1
  1
\A1;φ350
 73
     1
 44
1.0
  0
POINT
  5
5A6F
330
265B
100
AcDbEntity
  8
DefPoints
 62
     0
440
 16777216
100
AcDbPoint
 10
1150.586624768555
 20
2270.61417002838
 30
0.0
  0
POINT
  5
5A70
330
265B
100
AcDbEntity
  8
DefPoints
 62
     0
440
 16777216
100
AcDbPoint
 10
1500.586624768555
 20
2270.61417002838
 30
0.0
  0
POINT
  5
5A71
330
265B
100
AcDbEntity
  8
DefPoints
 62
     0
440
 16777216
100
AcDbPoint
 10
1500.586624768555
 20
2595.614170028381
 30
0.0
  0
ENDBLK
  5
265D
330
265B
100
AcDbEntity
  8
0
100
AcDbBlockEnd
  0
BLOCK
  5
2690
330
268F
100
AcDbEntity
  8
0
100
AcDbBlockBegin
  2
*D4
 70
     1
 10
0.0
 20
0.0
 30
0.0
  3
*D4
  1

  0
LINE
  5
5A72
330
268F
100
AcDbEntity
  8
寸法線
440
 16777216
100
AcDbLine
 10
1140.586624768555
 20
1002.613870028391
 30
0.0
 11
1000.586624768556
 21
1002.613870028391
 31
0.0
  0
LINE
  5
5A73
330
268F
100
AcDbEntity
  8
寸法線
440
 16777216
100
AcDbLine
 10
1140.586624768555
 20
1435.614170028391
 30
0.0
 11
1000.586624768556
 21
1435.614170028391
 31
0.0
  0
LINE
  5
5A74
330
268F
100
AcDbEntity
  8
寸法線
440
 16777216
100
AcDbLine
 10
1000.586624768556
 20
1002.613870028391
 30
0.0
 11
1000.586624768556
 21
1435.614170028391
 31
0.0
  0
INSERT
  5
5A75
330
268F
100
AcDbEntity
  8
寸法線
440
 16777216
100
AcDbBlockReference
  2
_DotSmall
 10
1000.586624768556
 20
1002.613870028391
 30
0.0
 41
30.0
 42
30.0
 43
30.0
 50
270.0
  0
INSERT
  5
5A76
330
268F
100
AcDbEntity
  8
寸法線
440
 16777216
100
AcDbBlockReference
  2
_DotSmall
 10
1000.586624768556
 20
1435.614170028391
 30
0.0
 41
30.0
 42
30.0
 43
30.0
 50
90.0
  0
MTEXT
  5
5A77
330
268F
100
AcDbEntity
  8
寸法線
 62
     7
440
 16777216
100
AcDbMText
 10
975.5866247685561
 20
1219.114020028391
 30
0.0
 40
30.0
 41
0.0
 71
     5
 72
     1
  1
\A1;433
 11
0.0000000000000001
 21
1.0
 31
0.0
 73
     1
 44
1.0
  0
POINT
  5
5A78
330
268F
100
AcDbEntity
  8
DefPoints
 62
     0
440
 16777216
100
AcDbPoint
 10
1150.586624768555
 20
1002.613870028391
 30
0.0
  0
POINT
  5
5A79
330
268F
100
AcDbEntity
  8
DefPoints
 62
     0
440
 16777216
100
AcDbPoint
 10
1150.586624768555
 20
1435.614170028391
 30
0.0
  0
POINT
  5
5A7A
330
268F
100
AcDbEntity
  8
DefPoints
 62
     0
440
 16777216
100
AcDbPoint
 10
1000.586624768556
 20
1435.614170028391
 30
0.0
  0
ENDBLK
  5
2691
330
268F
100
AcDbEntity
  8
0
100
AcDbBlockEnd
  0
BLOCK
  5
269C
330
269B
100
AcDbEntity
  8
0
100
AcDbBlockBegin
  2
*D5
 70
     1
 10
0.0
 20
0.0
 30
0.0
  3
*D5
  1

  0
LINE
  5
5A7B
330
269B
100
AcDbEntity
  8
寸法線
440
 16777216
100
AcDbLine
 10
1140.586624768555
 20
1435.614170028391
 30
0.0
 11
1000.586624768556
 21
1435.614170028391
 31
0.0
  0
LINE
  5
5A7C
330
269B
100
AcDbEntity
  8
寸法線
440
 16777216
100
AcDbLine
 10
1140.586624768555
 20
1445.614170028391
 30
0.0
 11
1000.586624768556
 21
1445.614170028391
 31
0.0
  0
LINE
  5
5A7D
330
269B
100
AcDbEntity
  8
寸法線
440
 16777216
100
AcDbLine
 10
1000.586624768556
 20
1435.614170028391
 30
0.0
 11
1000.586624768556
 21
1405.614170028391
 31
0.0
  0
LINE
  5
5A7E
330
269B
100
AcDbEntity
  8
寸法線
440
 16777216
100
AcDbLine
 10
1000.586624768556
 20
1445.614170028391
 30
0.0
 11
1000.586624768556
 21
1475.614170028391
 31
0.0
  0
LINE
  5
5A7F
330
269B
100
AcDbEntity
  8
寸法線
440
 16777216
100
AcDbLine
 10
1000.586624768556
 20
1435.614170028391
 30
0.0
 11
1000.586624768556
 21
1445.614170028391
 31
0.0
  0
INSERT
  5
5A80
330
269B
100
AcDbEntity
  8
寸法線
440
 16777216
100
AcDbBlockReference
  2
_DotSmall
 10
1000.586624768556
 20
1435.614170028391
 30
0.0
 41
30.0
 42
30.0
 43
30.0
 50
90.0
  0
INSERT
  5
5A81
330
269B
100
AcDbEntity
  8
寸法線
440
 16777216
100
AcDbBlockReference
  2
_DotSmall
 10
1000.586624768556
 20
1445.614170028391
 30
0.0
 41
30.0
 42
30.0
 43
30.0
 50
270.0
  0
MTEXT
  5
5A82
330
269B
100
AcDbEntity
  8
寸法線
 62
     7
440
 16777216
100
AcDbMText
 10
975.5866247685561
 20
1440.614170028391
 30
0.0
 40
30.0
 41
0.0
 71
     5
 72
     1
  1
\A1;10
 11
0.0000000000000001
 21
1.0
 31
0.0
 73
     1
 44
1.0
  0
POINT
  5
5A83
330
269B
100
AcDbEntity
  8
DefPoints
 62
     0
440
 16777216
100
AcDbPoint
 10
1150.586624768555
 20
1435.614170028391
 30
0.0
  0
POINT
  5
5A84
330
269B
100
AcDbEntity
  8
DefPoints
 62
     0
440
 16777216
100
AcDbPoint
 10
1150.586624768555
 20
1445.614170028391
 30
0.0
  0
POINT
  5
5A85
330
269B
100
AcDbEntity
  8
DefPoints
 62
     0
440
 16777216
100
AcDbPoint
 10
1000.586624768556
 20
1445.614170028391
 30
0.0
  0
ENDBLK
  5
269D
330
269B
100
AcDbEntity
  8
0
100
AcDbBlockEnd
  0
BLOCK
  5
26AA
330
26A9
100
AcDbEntity
  8
0
100
AcDbBlockBegin
  2
*D6
 70
     1
 10
0.0
 20
0.0
 30
0.0
  3
*D6
  1

  0
LINE
  5
5A86
330
26A9
100
AcDbEntity
  8
寸法線
440
 16777216
100
AcDbLine
 10
1130.586624768555
 20
1002.613870028391
 30
0.0
 11
1000.586624768556
 21
1002.613870028391
 31
0.0
  0
LINE
  5
5A87
330
26A9
100
AcDbEntity
  8
寸法線
440
 16777216
100
AcDbLine
 10
1115.586624768555
 20
995.6138700283917
 30
0.0
 11
1000.586624768556
 21
995.6138700283917
 31
0.0
  0
LINE
  5
5A88
330
26A9
100
AcDbEntity
  8
寸法線
440
 16777216
100
AcDbLine
 10
1000.586624768556
 20
1002.613870028391
 30
0.0
 11
1000.586624768556
 21
1032.613870028391
 31
0.0
  0
LINE
  5
5A89
330
26A9
100
AcDbEntity
  8
寸法線
440
 16777216
100
AcDbLine
 10
1000.586624768556
 20
995.6138700283917
 30
0.0
 11
1000.586624768556
 21
965.6138700283916
 31
0.0
  0
MTEXT
  5
5A8A
330
26A9
100
AcDbEntity
  8
寸法線
 62
     7
440
 16777216
100
AcDbMText
 10
972.0037332872816
 20
971.1375594312809
 30
0.0
 40
30.0
 41
0.0
 71
     5
 72
     1
  1
\A1;7
 11
0.0000000000000001
 21
1.0
 31
0.0
 73
     1
 44
1.0
  0
LINE
  5
5A8B
330
26A9
100
AcDbEntity
  8
寸法線
440
 16777216
100
AcDbLine
 10
1000.586624768556
 20
1002.613870028391
 30
0.0
 11
1000.586624768556
 21
995.6138700283917
 31
0.0
  0
INSERT
  5
5A8C
330
26A9
100
AcDbEntity
  8
寸法線
440
 16777216
100
AcDbBlockReference
  2
_DotSmall
 10
1000.586624768556
 20
1002.613870028391
 30
0.0
 41
30.0
 42
30.0
 43
30.0
 50
270.0
  0
INSERT
  5
5A8D
330
26A9
100
AcDbEntity
  8
寸法線
440
 16777216
100
AcDbBlockReference
  2
_DotSmall
 10
1000.586624768556
 20
995.6138700283917
 30
0.0
 41
30.0
 42
30.0
 43
30.0
 50
90.0
  0
POINT
  5
5A8E
330
26A9
100
AcDbEntity
  8
DefPoints
 62
     0
440
 16777216
100
AcDbPoint
 10
1140.586624768555
 20
1002.613870028391
 30
0.0
  0
POINT
  5
5A8F
330
26A9
100
AcDbEntity
  8
DefPoints
 62
     0
440
 16777216
100
AcDbPoint
 10
1125.586624768555
 20
995.6138700283917
 30
0.0
  0
POINT
  5
5A90
330
26A9
100
AcDbEntity
  8
DefPoints
 62
     0
440
 16777216
100
AcDbPoint
 10
1000.586624768556
 20
995.6138700283917
 30
0.0
  0
ENDBLK
  5
26AB
330
26A9
100
AcDbEntity
  8
0
100
AcDbBlockEnd
  0
BLOCK
  5
26B8
330
26B7
100
AcDbEntity
  8
0
100
AcDbBlockBegin
  2
*D7
 70
     1
 10
0.0
 20
0.0
 30
0.0
  3
*D7
  1

  0
LINE
  5
5A91
330
26B7
100
AcDbEntity
  8
寸法線
440
 16777216
100
AcDbLine
 10
1115.586624768555
 20
995.6138700283917
 30
0.0
 11
925.586624768557
 21
995.6138700283917
 31
0.0
  0
LINE
  5
5A92
330
26B7
100
AcDbEntity
  8
寸法線
440
 16777216
100
AcDbLine
 10
1243.173649196335
 20
1620.614170028392
 30
0.0
 11
925.5866247685569
 21
1620.614170028392
 31
0.0
  0
LINE
  5
5A93
330
26B7
100
AcDbEntity
  8
寸法線
440
 16777216
100
AcDbLine
 10
925.586624768557
 20
995.6138700283917
 30
0.0
 11
925.5866247685569
 21
1620.614170028392
 31
0.0
  0
INSERT
  5
5A94
330
26B7
100
AcDbEntity
  8
寸法線
440
 16777216
100
AcDbBlockReference
  2
_DotSmall
 10
925.586624768557
 20
995.6138700283917
 30
0.0
 41
30.0
 42
30.0
 43
30.0
 50
270.0
  0
INSERT
  5
5A95
330
26B7
100
AcDbEntity
  8
寸法線
440
 16777216
100
AcDbBlockReference
  2
_DotSmall
 10
925.5866247685569
 20
1620.614170028392
 30
0.0
 41
30.0
 42
30.0
 43
30.0
 50
90.0
  0
MTEXT
  5
5A96
330
26B7
100
AcDbEntity
  8
寸法線
 62
     7
440
 16777216
100
AcDbMText
 10
900.5866247685572
 20
1308.114020028391
 30
0.0
 40
30.0
 41
0.0
 71
     5
 72
     1
  1
\A1;625
 11
0.0000000000000001
 21
1.0
 31
0.0
 73
     1
 44
1.0
  0
POINT
  5
5A97
330
26B7
100
AcDbEntity
  8
DefPoints
 62
     0
440
 16777216
100
AcDbPoint
 10
1125.586624768555
 20
995.6138700283917
 30
0.0
  0
POINT
  5
5A98
330
26B7
100
AcDbEntity
  8
DefPoints
 62
     0
440
 16777216
100
AcDbPoint
 10
1253.173649196335
 20
1620.614170028392
 30
0.0
  0
POINT
  5
5A99
330
26B7
100
AcDbEntity
  8
DefPoints
 62
     0
440
 16777216
100
AcDbPoint
 10
925.5866247685569
 20
1620.614170028392
 30
0.0
  0
ENDBLK
  5
26B9
330
26B7
100
AcDbEntity
  8
0
100
AcDbBlockEnd
  0
BLOCK
  5
26DC
330
26DB
100
AcDbEntity
  8
0
100
AcDbBlockBegin
  2
*D8
 70
     1
 10
0.0
 20
0.0
 30
0.0
  3
*D8
  1

  0
LINE
  5
5A9A
330
26DB
100
AcDbEntity
  8
寸法線
440
 16777216
100
AcDbLine
 10
1140.586624768555
 20
1445.614170028391
 30
0.0
 11
1000.586624768557
 21
1445.614170028391
 31
0.0
  0
LINE
  5
5A9B
330
26DB
100
AcDbEntity
  8
寸法線
440
 16777216
100
AcDbLine
 10
1243.173649196335
 20
1620.614170028392
 30
0.0
 11
1000.586624768557
 21
1620.614170028392
 31
0.0
  0
LINE
  5
5A9C
330
26DB
100
AcDbEntity
  8
寸法線
440
 16777216
100
AcDbLine
 10
1000.586624768557
 20
1445.614170028391
 30
0.0
 11
1000.586624768557
 21
1620.614170028392
 31
0.0
  0
INSERT
  5
5A9D
330
26DB
100
AcDbEntity
  8
寸法線
440
 16777216
100
AcDbBlockReference
  2
_DotSmall
 10
1000.586624768557
 20
1445.614170028391
 30
0.0
 41
30.0
 42
30.0
 43
30.0
 50
270.0
  0
INSERT
  5
5A9E
330
26DB
100
AcDbEntity
  8
寸法線
440
 16777216
100
AcDbBlockReference
  2
_DotSmall
 10
1000.586624768557
 20
1620.614170028392
 30
0.0
 41
30.0
 42
30.0
 43
30.0
 50
90.0
  0
MTEXT
  5
5A9F
330
26DB
100
AcDbEntity
  8
寸法線
 62
     7
440
 16777216
100
AcDbMText
 10
975.5866247685581
 20
1533.114170028391
 30
0.0
 40
30.0
 41
0.0
 71
     5
 72
     1
  1
\A1;175
 11
0.0000000000000001
 21
1.0
 31
0.0
 73
     1
 44
1.0
  0
POINT
  5
5AA0
330
26DB
100
AcDbEntity
  8
DefPoints
 62
     0
440
 16777216
100
AcDbPoint
 10
1150.586624768555
 20
1445.614170028391
 30
0.0
  0
POINT
  5
5AA1
330
26DB
100
AcDbEntity
  8
DefPoints
 62
     0
440
 16777216
100
AcDbPoint
 10
1253.173649196335
 20
1620.614170028392
 30
0.0
  0
POINT
  5
5AA2
330
26DB
100
AcDbEntity
  8
DefPoints
 62
     0
440
 16777216
100
AcDbPoint
 10
1000.586624768557
 20
1620.614170028392
 30
0.0
  0
ENDBLK
  5
26DD
330
26DB
100
AcDbEntity
  8
0
100
AcDbBlockEnd
  0
BLOCK
  5
2718
330
2717
100
AcDbEntity
  8
0
100
AcDbBlockBegin
  2
*D9
 70
     1
 10
0.0
 20
0.0
 30
0.0
  3
*D9
  1

  0
LINE
  5
5AA3
330
2717
100
AcDbEntity
  8
寸法線
440
 16777216
100
AcDbLine
 10
1325.586624768559
 20
1445.614170028393
 30
0.0
 11
1384.048443338747
 21
1578.306354310162
 31
0.0
  0
MTEXT
  5
5AA4
330
2717
100
AcDbEntity
  8
寸法線
 62
     7
440
 16777216
100
AcDbMText
 10
1431.020065203051
 20
1684.918965016916
 30
0.0
 40
30.0
 41
0.0
 71
     5
 72
     1
  1
\A1;SR175
 11
0.403184955656465
 21
0.9151185122880502
 31
0.0
 73
     1
 44
1.0
  0
INSERT
  5
5AA5
330
2717
100
AcDbEntity
  8
寸法線
440
 16777216
100
AcDbBlockReference
  2
_OPEN
 10
1396.143992008441
 20
1605.759909678803
 30
0.0
 41
30.0
 42
30.0
 43
30.0
 50
66.22256297137529
  0
POINT
  5
5AA6
330
2717
100
AcDbEntity
  8
DefPoints
 62
     0
440
 16777216
100
AcDbPoint
 10
1396.143992008441
 20
1605.759909678803
 30
0.0
  0
POINT
  5
5AA7
330
2717
100
AcDbEntity
  8
DefPoints
 62
     0
440
 16777216
100
AcDbPoint
 10
1325.586624768559
 20
1445.614170028393
 30
0.0
  0
ENDBLK
  5
2719
330
2717
100
AcDbEntity
  8
0
100
AcDbBlockEnd
  0
BLOCK
  5
2739
330
2738
100
AcDbEntity
  8
0
100
AcDbBlockBegin
  2
*D10
 70
     1
 10
0.0
 20
0.0
 30
0.0
  3
*D10
  1

  0
LINE
  5
5AA8
330
2738
100
AcDbEntity
  8
寸法線
440
 16777216
100
AcDbLine
 10
2453.586624768551
 20
985.6138700283912
 30
0.0
 11
2453.586624768551
 21
845.6138700283911
 31
0.0
  0
LINE
  5
5AA9
330
2738
100
AcDbEntity
  8
寸法線
440
 16777216
100
AcDbLine
 10
2797.58662476855
 20
985.6064331755819
 30
0.0
 11
2797.58662476855
 21
845.6138700283911
 31
0.0
  0
LINE
  5
5AAA
330
2738
100
AcDbEntity
  8
寸法線
440
 16777216
100
AcDbLine
 10
2453.586624768551
 20
845.6138700283911
 30
0.0
 11
2797.58662476855
 21
845.6138700283911
 31
0.0
  0
INSERT
  5
5AAB
330
2738
100
AcDbEntity
  8
寸法線
440
 16777216
100
AcDbBlockReference
  2
_DotSmall
 10
2453.586624768551
 20
845.6138700283911
 30
0.0
 41
30.0
 42
30.0
 43
30.0
 50
180.0
  0
INSERT
  5
5AAC
330
2738
100
AcDbEntity
  8
寸法線
440
 16777216
100
AcDbBlockReference
  2
_DotSmall
 10
2797.58662476855
 20
845.6138700283911
 30
0.0
 41
30.0
 42
30.0
 43
30.0
  0
MTEXT
  5
5AAD
330
2738
100
AcDbEntity
  8
寸法線
 62
     7
440
 16777216
100
AcDbMText
 10
2625.58662476855
 20
870.6138700283913
 30
0.0
 40
30.0
 41
0.0
 71
     5
 72
     1
  1
\A1;φ344
 73
     1
 44
1.0
  0
POINT
  5
5AAE
330
2738
100
AcDbEntity
  8
DefPoints
 62
     0
440
 16777216
100
AcDbPoint
 10
2453.586624768551
 20
995.6138700283913
 30
0.0
  0
POINT
  5
5AAF
330
2738
100
AcDbEntity
  8
DefPoints
 62
     0
440
 16777216
100
AcDbPoint
 10
2797.58662476855
 20
995.606433175582
 30
0.0
  0
POINT
  5
5AB0
330
2738
100
AcDbEntity
  8
DefPoints
 62
     0
440
 16777216
100
AcDbPoint
 10
2797.58662476855
 20
845.6138700283911
 30
0.0
  0
ENDBLK
  5
273A
330
2738
100
AcDbEntity
  8
0
100
AcDbBlockEnd
  0
BLOCK
  5
2745
330
2744
100
AcDbEntity
  8
0
100
AcDbBlockBegin
  2
*D11
 70
     1
 10
0.0
 20
0.0
 30
0.0
  3
*D11
  1

  0
LINE
  5
5AB1
330
2744
100
AcDbEntity
  8
寸法線
440
 16777216
100
AcDbLine
 10
2450.586624768551
 20
992.6058331755802
 30
0.0
 11
2450.586624768551
 21
770.6138700283912
 31
0.0
  0
LINE
  5
5AB2
330
2744
100
AcDbEntity
  8
寸法線
440
 16777216
100
AcDbLine
 10
2800.58662476855
 20
992.6063331755811
 30
0.0
 11
2800.58662476855
 21
770.6138700283912
 31
0.0
  0
LINE
  5
5AB3
330
2744
100
AcDbEntity
  8
寸法線
440
 16777216
100
AcDbLine
 10
2450.586624768551
 20
770.6138700283912
 30
0.0
 11
2800.58662476855
 21
770.6138700283912
 31
0.0
  0
INSERT
  5
5AB4
330
2744
100
AcDbEntity
  8
寸法線
440
 16777216
100
AcDbBlockReference
  2
_DotSmall
 10
2450.586624768551
 20
770.6138700283912
 30
0.0
 41
30.0
 42
30.0
 43
30.0
 50
180.0
  0
INSERT
  5
5AB5
330
2744
100
AcDbEntity
  8
寸法線
440
 16777216
100
AcDbBlockReference
  2
_DotSmall
 10
2800.58662476855
 20
770.6138700283912
 30
0.0
 41
30.0
 42
30.0
 43
30.0
  0
MTEXT
  5
5AB6
330
2744
100
AcDbEntity
  8
寸法線
 62
     7
440
 16777216
100
AcDbMText
 10
2625.58662476855
 20
795.6138700283912
 30
0.0
 40
30.0
 41
0.0
 71
     5
 72
     1
  1
\A1;φ350
 73
     1
 44
1.0
  0
POINT
  5
5AB7
330
2744
100
AcDbEntity
  8
DefPoints
 62
     0
440
 16777216
100
AcDbPoint
 10
2450.586624768551
 20
1002.60583317558
 30
0.0
  0
POINT
  5
5AB8
330
2744
100
AcDbEntity
  8
DefPoints
 62
     0
440
 16777216
100
AcDbPoint
 10
2800.58662476855
 20
1002.606333175581
 30
0.0
  0
POINT
  5
5AB9
330
2744
100
AcDbEntity
  8
DefPoints
 62
     0
440
 16777216
100
AcDbPoint
 10
2800.58662476855
 20
770.6138700283912
 30
0.0
  0
ENDBLK
  5
2746
330
2744
100
AcDbEntity
  8
0
100
AcDbBlockEnd
  0
BLOCK
  5
4673
330
4672
100
AcDbEntity
  8
0
100
AcDbBlockBegin
  2
*D12
 70
     1
 10
0.0
 20
0.0
 30
0.0
  3
*D12
  1

  0
LINE
  5
5ABA
330
4672
100
AcDbEntity
  8
寸法線
440
 16777216
100
AcDbLine
 10
2417.555478073901
 20
995.6138700283917
 30
0.0
 11
2300.586624768558
 21
995.6138700283915
 31
0.0
  0
LINE
  5
5ABB
330
4672
100
AcDbEntity
  8
寸法線
440
 16777216
100
AcDbLine
 10
2440.586624768556
 20
1435.622233175581
 30
0.0
 11
2300.586624768558
 21
1435.622233175581
 31
0.0
  0
LINE
  5
5ABC
330
4672
100
AcDbEntity
  8
寸法線
440
 16777216
100
AcDbLine
 10
2300.586624768558
 20
995.6138700283915
 30
0.0
 11
2300.586624768558
 21
1435.622233175581
 31
0.0
  0
INSERT
  5
5ABD
330
4672
100
AcDbEntity
  8
寸法線
440
 16777216
100
AcDbBlockReference
  2
_DotSmall
 10
2300.586624768558
 20
995.6138700283915
 30
0.0
 41
30.0
 42
30.0
 43
30.0
 50
270.0
  0
INSERT
  5
5ABE
330
4672
100
AcDbEntity
  8
寸法線
440
 16777216
100
AcDbBlockReference
  2
_DotSmall
 10
2300.586624768558
 20
1435.622233175581
 30
0.0
 41
30.0
 42
30.0
 43
30.0
 50
90.0
  0
MTEXT
  5
5ABF
330
4672
100
AcDbEntity
  8
寸法線
 62
     7
440
 16777216
100
AcDbMText
 10
2275.586624768558
 20
1215.618051601986
 30
0.0
 40
30.0
 41
0.0
 71
     5
 72
     1
  1
\A1;440
 11
0.0000000000000001
 21
1.0
 31
0.0
 73
     1
 44
1.0
  0
POINT
  5
5AC0
330
4672
100
AcDbEntity
  8
DefPoints
 62
     0
440
 16777216
100
AcDbPoint
 10
2427.555478073902
 20
995.6138700283917
 30
0.0
  0
POINT
  5
5AC1
330
4672
100
AcDbEntity
  8
DefPoints
 62
     0
440
 16777216
100
AcDbPoint
 10
2450.586624768556
 20
1435.622233175581
 30
0.0
  0
POINT
  5
5AC2
330
4672
100
AcDbEntity
  8
DefPoints
 62
     0
440
 16777216
100
AcDbPoint
 10
2300.586624768558
 20
1435.622233175581
 30
0.0
  0
ENDBLK
  5
4674
330
4672
100
AcDbEntity
  8
0
100
AcDbBlockEnd
  0
BLOCK
  5
467F
330
467E
100
AcDbEntity
  8
0
100
AcDbBlockBegin
  2
*D13
 70
     1
 10
0.0
 20
0.0
 30
0.0
  3
*D13
  1

  0
LINE
  5
5AC3
330
467E
100
AcDbEntity
  8
寸法線
440
 16777216
100
AcDbLine
 10
2440.586624768556
 20
1435.622233175581
 30
0.0
 11
2300.586624768559
 21
1435.622233175581
 31
0.0
  0
LINE
  5
5AC4
330
467E
100
AcDbEntity
  8
寸法線
440
 16777216
100
AcDbLine
 10
2440.586624768556
 20
1445.622233175581
 30
0.0
 11
2300.586624768559
 21
1445.622233175581
 31
0.0
  0
LINE
  5
5AC5
330
467E
100
AcDbEntity
  8
寸法線
440
 16777216
100
AcDbLine
 10
2300.586624768559
 20
1435.622233175581
 30
0.0
 11
2300.586624768559
 21
1405.622233175581
 31
0.0
  0
LINE
  5
5AC6
330
467E
100
AcDbEntity
  8
寸法線
440
 16777216
100
AcDbLine
 10
2300.586624768559
 20
1445.622233175581
 30
0.0
 11
2300.586624768559
 21
1475.622233175581
 31
0.0
  0
LINE
  5
5AC7
330
467E
100
AcDbEntity
  8
寸法線
440
 16777216
100
AcDbLine
 10
2300.586624768559
 20
1435.622233175581
 30
0.0
 11
2300.586624768559
 21
1445.622233175581
 31
0.0
  0
INSERT
  5
5AC8
330
467E
100
AcDbEntity
  8
寸法線
440
 16777216
100
AcDbBlockReference
  2
_DotSmall
 10
2300.586624768559
 20
1435.622233175581
 30
0.0
 41
30.0
 42
30.0
 43
30.0
 50
90.0
  0
INSERT
  5
5AC9
330
467E
100
AcDbEntity
  8
寸法線
440
 16777216
100
AcDbBlockReference
  2
_DotSmall
 10
2300.586624768559
 20
1445.622233175581
 30
0.0
 41
30.0
 42
30.0
 43
30.0
 50
270.0
  0
MTEXT
  5
5ACA
330
467E
100
AcDbEntity
  8
寸法線
 62
     7
440
 16777216
100
AcDbMText
 10
2275.586624768559
 20
1440.62223317558
 30
0.0
 40
30.0
 41
0.0
 71
     5
 72
     1
  1
\A1;10
 11
0.0000000000000001
 21
1.0
 31
0.0
 73
     1
 44
1.0
  0
POINT
  5
5ACB
330
467E
100
AcDbEntity
  8
DefPoints
 62
     0
440
 16777216
100
AcDbPoint
 10
2450.586624768556
 20
1435.622233175581
 30
0.0
  0
POINT
  5
5ACC
330
467E
100
AcDbEntity
  8
DefPoints
 62
     0
440
 16777216
100
AcDbPoint
 10
2450.586624768556
 20
1445.622233175581
 30
0.0
  0
POINT
  5
5ACD
330
467E
100
AcDbEntity
  8
DefPoints
 62
     0
440
 16777216
100
AcDbPoint
 10
2300.586624768559
 20
1445.622233175581
 30
0.0
  0
ENDBLK
  5
4680
330
467E
100
AcDbEntity
  8
0
100
AcDbBlockEnd
  0
BLOCK
  5
468D
330
468C
100
AcDbEntity
  8
0
100
AcDbBlockBegin
  2
*D14
 70
     1
 10
0.0
 20
0.0
 30
0.0
  3
*D14
  1

  0
LINE
  5
5ACE
330
468C
100
AcDbEntity
  8
寸法線
440
 16777216
100
AcDbLine
 10
2417.555478073901
 20
995.6138700283917
 30
0.0
 11
2225.58662476856
 21
995.6138700283915
 31
0.0
  0
LINE
  5
5ACF
330
468C
100
AcDbEntity
  8
寸法線
440
 16777216
100
AcDbLine
 10
2543.173588109806
 20
1620.622233175571
 30
0.0
 11
2225.586624768559
 21
1620.622233175571
 31
0.0
  0
LINE
  5
5AD0
330
468C
100
AcDbEntity
  8
寸法線
440
 16777216
100
AcDbLine
 10
2225.58662476856
 20
995.6138700283915
 30
0.0
 11
2225.586624768559
 21
1620.622233175571
 31
0.0
  0
INSERT
  5
5AD1
330
468C
100
AcDbEntity
  8
寸法線
440
 16777216
100
AcDbBlockReference
  2
_DotSmall
 10
2225.58662476856
 20
995.6138700283915
 30
0.0
 41
30.0
 42
30.0
 43
30.0
 50
270.0
  0
INSERT
  5
5AD2
330
468C
100
AcDbEntity
  8
寸法線
440
 16777216
100
AcDbBlockReference
  2
_DotSmall
 10
2225.586624768559
 20
1620.622233175571
 30
0.0
 41
30.0
 42
30.0
 43
30.0
 50
90.0
  0
MTEXT
  5
5AD3
330
468C
100
AcDbEntity
  8
寸法線
 62
     7
440
 16777216
100
AcDbMText
 10
2200.586624768559
 20
1308.11805160198
 30
0.0
 40
30.0
 41
0.0
 71
     5
 72
     1
  1
\A1;625
 11
0.0000000000000001
 21
1.0
 31
0.0
 73
     1
 44
1.0
  0
POINT
  5
5AD4
330
468C
100
AcDbEntity
  8
DefPoints
 62
     0
440
 16777216
100
AcDbPoint
 10
2427.555478073902
 20
995.6138700283917
 30
0.0
  0
POINT
  5
5AD5
330
468C
100
AcDbEntity
  8
DefPoints
 62
     0
440
 16777216
100
AcDbPoint
 10
2553.173588109806
 20
1620.622233175571
 30
0.0
  0
POINT
  5
5AD6
330
468C
100
AcDbEntity
  8
DefPoints
 62
     0
440
 16777216
100
AcDbPoint
 10
2225.586624768559
 20
1620.622233175571
 30
0.0
  0
ENDBLK
  5
468E
330
468C
100
AcDbEntity
  8
0
100
AcDbBlockEnd
  0
BLOCK
  5
4699
330
4698
100
AcDbEntity
  8
0
100
AcDbBlockBegin
  2
*D15
 70
     1
 10
0.0
 20
0.0
 30
0.0
  3
*D15
  1

  0
LINE
  5
5AD7
330
4698
100
AcDbEntity
  8
寸法線
440
 16777216
100
AcDbLine
 10
2440.586624768556
 20
1445.622233175581
 30
0.0
 11
2300.58662476856
 21
1445.622233175581
 31
0.0
  0
LINE
  5
5AD8
330
4698
100
AcDbEntity
  8
寸法線
440
 16777216
100
AcDbLine
 10
2543.173588109806
 20
1620.622233175571
 30
0.0
 11
2300.58662476856
 21
1620.622233175571
 31
0.0
  0
LINE
  5
5AD9
330
4698
100
AcDbEntity
  8
寸法線
440
 16777216
100
AcDbLine
 10
2300.58662476856
 20
1445.622233175581
 30
0.0
 11
2300.58662476856
 21
1620.622233175571
 31
0.0
  0
INSERT
  5
5ADA
330
4698
100
AcDbEntity
  8
寸法線
440
 16777216
100
AcDbBlockReference
  2
_DotSmall
 10
2300.58662476856
 20
1445.622233175581
 30
0.0
 41
30.0
 42
30.0
 43
30.0
 50
270.0
  0
INSERT
  5
5ADB
330
4698
100
AcDbEntity
  8
寸法線
440
 16777216
100
AcDbBlockReference
  2
_DotSmall
 10
2300.58662476856
 20
1620.622233175571
 30
0.0
 41
30.0
 42
30.0
 43
30.0
 50
90.0
  0
MTEXT
  5
5ADC
330
4698
100
AcDbEntity
  8
寸法線
 62
     7
440
 16777216
100
AcDbMText
 10
2275.58662476856
 20
1533.122233175575
 30
0.0
 40
30.0
 41
0.0
 71
     5
 72
     1
  1
\A1;175
 11
0.0000000000000001
 21
1.0
 31
0.0
 73
     1
 44
1.0
  0
POINT
  5
5ADD
330
4698
100
AcDbEntity
  8
DefPoints
 62
     0
440
 16777216
100
AcDbPoint
 10
2450.586624768556
 20
1445.622233175581
 30
0.0
  0
POINT
  5
5ADE
330
4698
100
AcDbEntity
  8
DefPoints
 62
     0
440
 16777216
100
AcDbPoint
 10
2553.173588109806
 20
1620.622233175571
 30
0.0
  0
POINT
  5
5ADF
330
4698
100
AcDbEntity
  8
DefPoints
 62
     0
440
 16777216
100
AcDbPoint
 10
2300.58662476856
 20
1620.622233175571
 30
0.0
  0
ENDBLK
  5
469A
330
4698
100
AcDbEntity
  8
0
100
AcDbBlockEnd
  0
BLOCK
  5
46D7
330
46D6
100
AcDbEntity
  8
0
100
AcDbBlockBegin
  2
*D16
 70
     1
 10
0.0
 20
0.0
 30
0.0
  3
*D16
  1

  0
LINE
  5
5AE0
330
46D6
100
AcDbEntity
  8
寸法線
440
 16777216
100
AcDbLine
 10
2833.617771463199
 20
995.6138700283917
 30
0.0
 11
2950.586624768558
 21
995.6138700283917
 31
0.0
  0
LINE
  5
5AE1
330
46D6
100
AcDbEntity
  8
寸法線
440
 16777216
100
AcDbLine
 10
2807.586624768557
 20
1141.621933175581
 30
0.0
 11
2950.586624768558
 21
1141.621933175581
 31
0.0
  0
LINE
  5
5AE2
330
46D6
100
AcDbEntity
  8
寸法線
440
 16777216
100
AcDbLine
 10
2950.586624768558
 20
995.6138700283917
 30
0.0
 11
2950.586624768558
 21
1141.621933175581
 31
0.0
  0
INSERT
  5
5AE3
330
46D6
100
AcDbEntity
  8
寸法線
440
 16777216
100
AcDbBlockReference
  2
_DotSmall
 10
2950.586624768558
 20
995.6138700283917
 30
0.0
 41
30.0
 42
30.0
 43
30.0
 50
270.0
  0
INSERT
  5
5AE4
330
46D6
100
AcDbEntity
  8
寸法線
440
 16777216
100
AcDbBlockReference
  2
_DotSmall
 10
2950.586624768558
 20
1141.621933175581
 30
0.0
 41
30.0
 42
30.0
 43
30.0
 50
90.0
  0
MTEXT
  5
5AE5
330
46D6
100
AcDbEntity
  8
寸法線
 62
     7
440
 16777216
100
AcDbMText
 10
2925.586624768558
 20
1068.617901601985
 30
0.0
 40
30.0
 41
0.0
 71
     5
 72
     1
  1
\A1;146
 11
0.0000000000000001
 21
1.0
 31
0.0
 73
     1
 44
1.0
  0
POINT
  5
5AE6
330
46D6
100
AcDbEntity
  8
DefPoints
 62
     0
440
 16777216
100
AcDbPoint
 10
2823.617771463198
 20
995.6138700283917
 30
0.0
  0
POINT
  5
5AE7
330
46D6
100
AcDbEntity
  8
DefPoints
 62
     0
440
 16777216
100
AcDbPoint
 10
2797.586624768557
 20
1141.621933175581
 30
0.0
  0
POINT
  5
5AE8
330
46D6
100
AcDbEntity
  8
DefPoints
 62
     0
440
 16777216
100
AcDbPoint
 10
2950.586624768558
 20
1141.621933175581
 30
0.0
  0
ENDBLK
  5
46D8
330
46D6
100
AcDbEntity
  8
0
100
AcDbBlockEnd
  0
ENDSEC
  0
SECTION
  2
ENTITIES
  0
LWPOLYLINE
  5
1E1B
330
2
100
AcDbEntity
  8
FRAM3
  6
Continuous
 62
     1
100
AcDbPolyline
 90
        4
 70
     1
 43
0.0
 10
298.4471218331892
 20
151.1587226720112
 10
298.4471218331892
 20
2851.158722672011
 10
4073.447121833171
 20
2851.158722672011
 10
4073.447121833171
 20
151.1587226720112
  0
LWPOLYLINE
  5
1E1C
330
2
100
AcDbEntity
  8
DefPoints
100
AcDbPolyline
 90
        4
 70
     1
 43
0.0
 10
8.447121833189157
 20
2986.158722672011
 10
4208.447121833169
 20
2986.158722672011
 10
4208.447121833169
 20
16.15872267201121
 10
8.447121833189157
 20
16.15872267201121
  0
CIRCLE
  5
25DB
330
2
100
AcDbEntity
  8
外形線
100
AcDbCircle
 10
1325.586624768555
 20
2270.61417002838
 30
0.0
 40
175.0
  0
LINE
  5
25DC
330
2
100
AcDbEntity
  8
基準線
 48
2.0
100
AcDbLine
 39
117.7949108950449
 10
1325.586624768555
 20
2270.61417002838
 30
0.0
 11
1325.586624768555
 21
2476.755264094709
 31
0.0
  0
LINE
  5
25DD
330
2
100
AcDbEntity
  8
基準線
 48
2.0
100
AcDbLine
 39
117.7949108950449
 10
1531.727718834881
 20
2270.61417002838
 30
0.0
 11
1119.445530702229
 21
2270.61417002838
 31
0.0
  0
LINE
  5
25DE
330
2
100
AcDbEntity
  8
基準線
 48
2.0
100
AcDbLine
 39
117.7949108950449
 10
1325.586624768555
 20
2270.61417002838
 30
0.0
 11
1325.586624768555
 21
2059.284170028381
 31
0.0
  0
DIMENSION
  5
25FF
330
2
100
AcDbEntity
  8
寸法線
100
AcDbDimension
  2
*D3
 10
1500.586624768555
 20
2595.614170028381
 30
0.0
 11
1325.586624768555
 21
2620.614170028381
 31
0.0
 70
    32
  1
φ<>
 71
     5
 42
350.0
  3
ベース
100
AcDbAlignedDimension
 13
1150.586624768555
 23
2270.61417002838
 33
0.0
 14
1500.586624768555
 24
2270.61417002838
 34
0.0
100
AcDbRotatedDimension
  0
MTEXT
  5
2600
330
2
100
AcDbEntity
  8
文字
100
AcDbMText
 10
1338.325706389729
 20
1968.835137008832
 30
0.0
 40
40.0
 41
0.0
 71
     5
 72
     5
  1
{\L平面図 Ｓ＝１／１０}
 73
     1
 44
1.0
  0
DIMENSION
  5
2604
330
2
100
AcDbEntity
  8
寸法線
100
AcDbDimension
  2
*D4
 10
1000.586624768556
 20
1435.614170028391
 30
0.0
 11
975.5866247685561
 21
1219.114020028391
 31
0.0
 70
    32
 71
     5
 42
433.0003000000001
  3
ベース
100
AcDbAlignedDimension
 13
1150.586624768555
 23
1002.613870028391
 33
0.0
 14
1150.586624768555
 24
1435.614170028391
 34
0.0
 50
90.0
100
AcDbRotatedDimension
  0
DIMENSION
  5
2605
330
2
100
AcDbEntity
  8
寸法線
100
AcDbDimension
  2
*D5
 10
1000.586624768556
 20
1445.614170028391
 30
0.0
 11
975.5866247685561
 21
1440.614170028391
 31
0.0
 70
    32
 71
     5
 42
10.0
  3
ベース
100
AcDbAlignedDimension
 13
1150.586624768555
 23
1435.614170028391
 33
0.0
 14
1150.586624768555
 24
1445.614170028391
 34
0.0
 50
90.0
100
AcDbRotatedDimension
  0
DIMENSION
  5
2606
330
2
100
AcDbEntity
  8
寸法線
100
AcDbDimension
  2
*D6
 10
1000.586624768556
 20
995.6138700283917
 30
0.0
 11
972.0037332872816
 21
971.1375594312809
 31
0.0
 70
   160
 71
     5
 42
6.999999999999658
  3
ベース
100
AcDbAlignedDimension
 13
1140.586624768555
 23
1002.613870028391
 33
0.0
 14
1125.586624768555
 24
995.6138700283913
 34
0.0
 50
90.0
100
AcDbRotatedDimension
  0
DIMENSION
  5
2607
330
2
100
AcDbEntity
  8
寸法線
100
AcDbDimension
  2
*D7
 10
925.5866247685569
 20
1620.614170028392
 30
0.0
 11
900.5866247685572
 21
1308.114020028391
 31
0.0
 70
    32
 71
     5
 42
625.0003
  3
ベース
100
AcDbAlignedDimension
 13
1125.586624768555
 23
995.6138700283913
 33
0.0
 14
1253.173649196335
 24
1620.614170028391
 34
0.0
 50
90.0
100
AcDbRotatedDimension
  0
DIMENSION
  5
260A
330
2
100
AcDbEntity
  8
寸法線
100
AcDbDimension
  2
*D8
 10
1000.586624768557
 20
1620.614170028392
 30
0.0
 11
975.5866247685581
 21
1533.114170028391
 31
0.0
 70
    32
 71
     5
 42
175.0000000000002
  3
ベース
100
AcDbAlignedDimension
 13
1150.586624768555
 23
1445.614170028391
 33
0.0
 14
1253.173649196335
 24
1620.614170028391
 34
0.0
 50
90.0
100
AcDbRotatedDimension
  0
MTEXT
  5
260C
330
2
100
AcDbEntity
  8
文字
100
AcDbMText
 10
1341.367173247565
 20
773.6668476793505
 30
0.0
 40
40.0
 41
0.0
 71
     5
 72
     5
  1
{\L立面図 Ｓ＝１／１０}
 73
     1
 44
1.0
  0
DIMENSION
  5
2611
330
2
100
AcDbEntity
  8
寸法線
100
AcDbDimension
  2
*D9
 10
1325.586624768559
 20
1445.614170028393
 30
0.0
 11
1431.020065203051
 21
1684.918965016916
 31
0.0
 70
   164
  1
S<>
 71
     5
 42
175.0000000000014
  3
ベース
100
AcDbRadialDimension
 15
1396.143992008441
 25
1605.759909678803
 35
0.0
 40
0.0
1001
ACAD_DSTYLE_DIMRADIAL_EXTENSION
1070
   387
1070
     1
1070
   388
1040
0.0000006981317711
1070
   390
1040
3.141592653589792
1001
ACAD
1000
DSTYLE
1002
{
1070
   344
1005
28
1070
   342
1005
0
1070
   173
1070
     1
1002
}
  0
MULTILEADER
  5
2614
330
2
100
AcDbEntity
  8
文字引出
 92
     1100
310
4C040000250000000C00000016000000000000C00C00000033000000000000000C00000013000000993A00000C00000016000000070000C3B40000000B000000E537DF512D049840CCC83754C62A9940000000000000000000000000000000000000000000000000000000000000F03F000000000000F03F00000000000000
310
00000000000000000094BD8ECB8365815B837681699492816A00652D8A10000000010000000000000000003E40000000000000F03F0000000000000000000000000000F03F00000000000000000000000000000000000000005458542E53485800626967666F6E742E736878000C00000033000000000000000C0000001000
310
0000070000000C00000016000000000000C00C00000012000000FF7F00000C0000001300000001000000880000001D00000090073F0BCDDF34C0BBA81980FE8B35400000000000000000A9AA846697779540BBA81980FE8B35C090073F0BCDDF34C00000000000000000CEC608A9BD83964000000000000000000000000000
310
0000000000000000003E400000000000000000000000000000000000000000000000000000000000000000000000000000F03F0C00000016000000040000C30C0000001700000012000000540000002000000002000000000000000000F0BF535555555555C53F000000000000000000000000000000000000000000000000
310
000000000000000000000000000000000000000000000000000000000000F03F0C00000016000000040000C30C0000001700000012000000540000002000000002000000000000000000000000000000000000000000000000000000000000000000F0BF535555555555C5BF00000000000000000000000000000000000000
310
0000000000000000000000F03F0C00000016000000040000C30C0000001700000012000000540000002000000002000000000000000000000000000000000000000000000000000000000000000000F0BF0000000000000000000000000000000000000000000000000000000000000000000000000000F03F080000001F00
310
00000C00000016000000000000C00C00000012000000FF7F00000C00000033000000000000000C00000013000000891300003C0000000600000002000000C7A6B19A16CB9540712D09A3EDD996400000000000000000E537DF512DF29740CCC83754C612994000000000000000000C00000013000000112700003C00000006
310
00000002000000E537DF512DF29740CCC83754C612994000000000000000004B9E45B893009840CCC83754C612994000000000000000000C00000016000000000000C00C00000012000000FF7F00000C00000017000000000000000C000000130000009A3A00003C00000006000000020000004C9E45B893009840CCC83754
310
C61299400000000000000000E637DF512D249C40CCC83754C612994000000000000000000C00000016000000000000C00C00000012000000FF7F00000C00000017000000FFFFFFFF0C0000003300000000000000
100
AcDbMLeader
300
CONTEXT_DATA{
 40
10.0
 10
1536.144257629191
 20
1604.693680640822
 30
0.0
 41
30.0
140
30.0
145
0.9
174
     6
175
     6
176
     0
177
     0
290
     1
304
{\C7;反射テープ（白）}
 11
0.0
 21
0.0
 31
1.0
340
1B
 12
1537.044257629191
 22
1640.693680640822
 32
0.0
 13
1.0
 23
0.0
 33
0.0
 42
0.0
 43
0.0
 44
0.0
 45
1.0
170
     1
 90
-1073741824
171
     1
172
     5
 91
-1073741824
141
0.0
 92
        0
291
     0
292
     0
173
     0
293
     0
142
0.0
143
0.0
294
     0
295
     0
296
     0
110
1541.483964590219
120
1640.935215127118
130
0.0
111
1.0
121
0.0
131
0.0
112
0.0
122
1.0
132
0.0
297
     0
302
LEADER{
290
     1
291
     1
 10
1532.544257629191
 20
1604.693680640822
 30
0.0
 11
1.0
 21
0.0
 31
0.0
 90
        0
 40
3.599999999999998
304
LEADER_LINE{
 10
1373.897852013508
 20
1440.935215127119
 30
0.0
 91
        0
305
}
303
}
301
}
340
281
 90
 17127168
170
     1
 91
-1056964608
341
1E
171
    -2
290
     1
291
     1
 41
0.36
342
28
 42
3.0
172
     2
343
1B
173
     6
 95
        6
174
     1
175
     0
 92
-1056964608
292
     0
 93
-1056964608
 10
1.0
 20
1.0
 30
1.0
 43
0.0
176
     0
293
     0
294
     0
178
     0
179
     1
 45
10.0
1001
ACAD_MLEADERVER
1070
     2
  0
MULTILEADER
  5
2617
330
2
100
AcDbEntity
  8
文字引出
 92
     1108
310
54040000250000000C00000016000000000000C00C00000033000000000000000C00000013000000993A00000C00000016000000070000C3BC0000000B000000A194A2EF04E297407DA1F43267178C40000000000000000000000000000000000000000000000000000000000000F03F000000000000F03F00000000000000
310
000000000000000000834E8362835683878393835383808146372E30829481698D95816A001B000000010000000000000000003E40000000000000F03F0000000000000000000000000000F03F00000000000000000000000000000000000000005458542E53485800626967666F6E742E736878000C000000330000000000
310
00000C00000010000000070000000C00000016000000000000C00C00000012000000FF7F00000C0000001300000001000000880000001D00000042E9AF72CB3D29C02A0B12C154373BC0000000000000000060BD7662E41B97402A0B12C154373B4042E9AF72CB3D29C00000000000000000BDD1149A49358F400000000000
310
00000000000000000000000000000000003E400000000000000000000000000000000000000000000000000000000000000000000000000000F03F0C00000016000000040000C30C0000001700000012000000540000002000000002000000000000000000F0BF535555555555C53F00000000000000000000000000000000
310
0000000000000000000000000000000000000000000000000000000000000000000000000000F03F0C00000016000000040000C30C0000001700000012000000540000002000000002000000000000000000000000000000000000000000000000000000000000000000F0BF535555555555C5BF0000000000000000000000
310
00000000000000000000000000000000000000F03F0C00000016000000040000C30C0000001700000012000000540000002000000002000000000000000000000000000000000000000000000000000000000000000000F0BF0000000000000000000000000000000000000000000000000000000000000000000000000000
310
F03F080000001F0000000C00000016000000000000C00C00000012000000FF7F00000C00000033000000000000000C00000013000000891300003C0000000600000002000000331D5CF95F4E974064410CF48E5B8E400000000000000000A194A2EF04E097407AA1F43267E78B4000000000000000000C0000001300000011
310
2700003C0000000600000002000000A194A2EF04E097407AA1F43267E78B40000000000000000007FB08566BEE97407AA1F43267E78B4000000000000000000C00000016000000000000C00C00000012000000FF7F00000C00000017000000000000000C000000130000009A3A00003C000000060000000200000003FB0856
310
6BEE97407AA1F43267E78B4000000000000000009C94A2EF04469F407AA1F43267E78B4000000000000000000C00000016000000000000C00C00000012000000FF7F00000C00000017000000FFFFFFFF0C0000003300000000000000
100
AcDbMLeader
300
CONTEXT_DATA{
 40
10.0
 10
1531.604820385285
 20
892.9253901588229
 30
0.0
 41
30.0
140
30.0
145
0.9
174
     6
175
     6
176
     0
177
     0
290
     1
304
{\C7;クッションゴム：7.0ｔ（黒）}
 11
0.0
 21
0.0
 31
1.0
340
1B
 12
1532.504820385286
 22
928.9253901588232
 32
0.0
 13
1.0
 23
0.0
 33
0.0
 42
0.0
 43
0.0
 44
0.0
 45
1.0
170
     1
 90
-1073741824
171
     1
172
     5
 91
-1073741824
141
0.0
 92
        0
291
     0
292
     0
173
     0
293
     0
142
0.0
143
0.0
294
     0
295
     0
296
     0
110
1495.590932961997
120
892.9253901588229
130
0.0
111
1.0
121
0.0
131
0.0
112
0.0
122
1.0
132
0.0
297
     0
302
LEADER{
290
     1
291
     1
 10
1528.004820385286
 20
892.9253901588229
 30
0.0
 11
1.0
 21
0.0
 31
0.0
 90
        0
 40
3.599999999999998
304
LEADER_LINE{
 10
1478.973031859692
 20
998.6609384180551
 30
0.0
 91
        0
305
}
303
}
301
}
340
281
 90
 17127168
170
     1
 91
-1056964608
341
1E
171
    -2
290
     1
291
     1
 41
0.36
342
28
 42
3.0
172
     2
343
1B
173
     6
 95
        6
174
     1
175
     0
 92
-1056964608
292
     0
 93
-1056964608
 10
1.0
 20
1.0
 30
1.0
 43
0.0
176
     0
293
     0
294
     0
178
     0
179
     1
 45
10.0
1001
ACAD_MLEADERVER
1070
     2
  0
DIMENSION
  5
261C
330
2
100
AcDbEntity
  8
寸法線
100
AcDbDimension
  2
*D10
 10
2797.58662476855
 20
845.6138700283911
 30
0.0
 11
2625.58662476855
 21
870.6138700283913
 31
0.0
 70
    32
  1
φ<>
 71
     5
 42
343.9999999999995
  3
ベース
100
AcDbAlignedDimension
 13
2453.586624768551
 23
995.6138700283913
 33
0.0
 14
2797.58662476855
 24
995.606433175582
 34
0.0
100
AcDbRotatedDimension
  0
DIMENSION
  5
261D
330
2
100
AcDbEntity
  8
寸法線
100
AcDbDimension
  2
*D11
 10
2800.58662476855
 20
770.6138700283912
 30
0.0
 11
2625.58662476855
 21
795.6138700283912
 31
0.0
 70
    32
  1
φ<>
 71
     5
 42
349.9999999999996
  3
ベース
100
AcDbAlignedDimension
 13
2450.586624768551
 23
1002.60583317558
 33
0.0
 14
2800.58662476855
 24
1002.606333175581
 34
0.0
100
AcDbRotatedDimension
  0
MTEXT
  5
2623
330
2
100
AcDbEntity
  8
文字
100
AcDbMText
 10
2619.058140262876
 20
676.413778149504
 30
0.0
 40
40.0
 41
0.0
 71
     5
 72
     5
  1
{\L断面図 Ｓ＝１／１０}
 73
     1
 44
1.0
  0
MULTILEADER
  5
262A
330
2
100
AcDbEntity
  8
文字引出
 92
     1688
310
98060000360000000C00000016000000000000C00C00000033000000000000000C00000013000000993A00000C00000016000000070000C3B40000000B00000031BF1337AD85A6407E87813BB2E89940000000000000000000000000000000000000000000000000000000000000F03F000000000000F03F00000000000000
310
000000000000000000967B91CC8146322E308294814053555300652D8A10000000010000000000000000003E40000000000000F03F0000000000000000000000000000F03F00000000000000000000000000000000000000005458542E53485800626967666F6E742E736878000C00000033000000000000000C0000001000
310
0000070000000C00000016000000000000C00C00000012000000FF7F00000C0000001300000001000000880000001D00000082A4F89B750921C0B8F708D5E2C33C400000000000000000F1E7145A2CE1A540B8F708D5E2C33CC082A4F89B750921C000000000000000006D8EB12A7DB6954000000000000000000000000000
310
0000000000000000003E400000000000000000000000000000000000000000000000000000000000000000000000000000F03F0C00000016000000040000C30C0000001700000012000000540000002000000002000000000000000000F0BF535555555555C53F000000000000000000000000000000000000000000000000
310
000000000000000000000000000000000000000000000000000000000000F03F0C00000016000000040000C30C0000001700000012000000540000002000000002000000000000000000000000000000000000000000000000000000000000000000F0BF535555555555C5BF00000000000000000000000000000000000000
310
0000000000000000000000F03F0C00000016000000040000C30C0000001700000012000000540000002000000002000000000000000000000000000000000000000000000000000000000000000000F0BF0000000000000000000000000000000000000000000000000000000000000000000000000000F03F080000001F00
310
00000C00000016000000000000C00C00000012000000FF7F00000C00000033000000000000000C00000013000000891300003C000000060000000200000095E0B0CF35F2A5404CB205B68C29964000000000000000002FBF1337AD7CA6407E87813BB2D0994000000000000000000C0000001300000002000000880000001D
310
000000307D76FBD03A37C0FB47F7F1CFFB32400000000000000000404E35E02F92A540FB47F7F1CFFB32C0307D76FBD03A37C000000000000000004D186AC970519840000000000000000000000000000000000000000000003E40000000000000000000000000000000000000000000000000000000000000000000000000
310
0000F03F0C00000016000000040000C30C0000001700000012000000540000002000000002000000000000000000F0BF535555555555C53F000000000000000000000000000000000000000000000000000000000000000000000000000000000000000000000000000000000000F03F0C00000016000000040000C30C0000
310
001700000012000000540000002000000002000000000000000000000000000000000000000000000000000000000000000000F0BF535555555555C5BF000000000000000000000000000000000000000000000000000000000000F03F0C00000016000000040000C30C000000170000001200000054000000200000000200
310
0000000000000000000000000000000000000000000000000000000000000000F0BF0000000000000000000000000000000000000000000000000000000000000000000000000000F03F080000001F0000000C00000016000000000000C00C00000012000000FF7F00000C00000033000000000000000C000000130000008A
310
1300003C00000006000000020000003A3B2C82A5C0A5406DF53109609D984000000000000000002FBF1337AD7CA6407E87813BB2D0994000000000000000000C00000013000000112700003C00000006000000020000002FBF1337AD7CA6407E87813BB2D09940000000000000000062F2466AE083A6407E87813BB2D09940
310
00000000000000000C00000016000000000000C00C00000012000000FF7F00000C00000017000000000000000C000000130000009A3A00003C000000060000000200000063F2466AE083A6407E87813BB2D09940000000000000000030BF1337AD0FA9407E87813BB2D0994000000000000000000C00000016000000000000
310
C00C00000012000000FF7F00000C00000017000000FFFFFFFF0C0000003300000000000000
100
AcDbMLeader
300
CONTEXT_DATA{
 40
10.0
 10
2881.9383108302
 20
1652.174055122275
 30
0.0
 41
30.0
140
30.0
145
0.9
174
     6
175
     6
176
     0
177
     0
290
     1
304
{\C7;本体：2.0ｔ　SUS}
 11
0.0
 21
0.0
 31
1.0
340
1B
 12
2882.838310830201
 22
1688.174055122275
 32
0.0
 13
1.0
 23
0.0
 33
0.0
 42
0.0
 43
0.0
 44
0.0
 45
1.0
170
     1
 90
-1073741824
171
     1
172
     5
 91
-1073741824
141
0.0
 92
        0
291
     0
292
     0
173
     0
293
     0
142
0.0
143
0.0
294
     0
295
     0
296
     0
110
2854.142517844732
120
1698.987869620788
130
0.0
111
1.0
121
0.0
131
0.0
112
0.0
122
1.0
132
0.0
297
     0
302
LEADER{
290
     1
291
     1
 10
2878.3383108302
 20
1652.174055122275
 30
0.0
 11
1.0
 21
0.0
 31
0.0
 90
        0
 40
3.599999999999998
304
LEADER_LINE{
 10
2800.586624768556
 20
1389.622233175581
 30
0.0
 91
        0
305
}
304
LEADER_LINE{
 10
2761.093507448008
 20
1556.360143335088
 30
0.0
 91
        1
305
}
303
}
301
}
340
281
 90
 17127168
170
     1
 91
-1056964608
341
1E
171
    -2
290
     1
291
     1
 41
0.36
342
28
 42
3.0
172
     2
343
1B
173
     6
 95
        6
174
     1
175
     0
 92
-1056964608
292
     0
 93
-1056964608
 10
1.0
 20
1.0
 30
1.0
 43
0.0
176
     0
293
     0
294
     0
178
     0
179
     1
 45
10.0
1001
ACAD_MLEADERVER
1070
     2
  0
MULTILEADER
  5
2631
330
2
100
AcDbEntity
  8
文字引出
 92
     1300
310
14050000270000000C00000016000000000000C00C00000033000000000000000C00000013000000993A00000C00000016000000070000C3B40000000B000000D4264AF8C692A6404E1BE6153E539340000000000000000000000000000000000000000000000000000000000000F03F000000000000F03F00000000000000
310
000000000000000000834583478343836781408197332E38828B82870013000000010000000000000000003E40000000000000F03F0000000000000000000000000000F03F00000000000000000000000000000000000000005458542E53485800626967666F6E742E736878000C00000016000000070000C3BC0000000B00
310
0000D4264AF8C69AA6404E1BE6153E8B9240000000000000000000000000000000000000000000000000000000000000F03F000000000000F03F000000000000000000000000000000005353343030814083D3333130817E83D3323130817E3132829400300019000000010000000000000000003E40000000000000F03F00
310
00000000000000000000000000F03F00000000000000000000000000000000000000005458542E53485800626967666F6E742E736878000C00000033000000000000000C00000010000000070000000C00000016000000000000C00C00000012000000FF7F00000C0000001300000001000000880000001D0000007429A11A
310
C92C34C055140E82F53336400000000000000000F1E7145A2CB9A54055140E82F53336C07429A11AC92C34C00000000000000000ACE50CDC7C5E9140000000000000000000000000000000000000000000003E400000000000000000000000000000000000000000000000000000000000000000000000000000F03F0C0000
310
0016000000040000C30C0000001700000012000000540000002000000002000000000000000000F0BF535555555555C53F000000000000000000000000000000000000000000000000000000000000000000000000000000000000000000000000000000000000F03F0C00000016000000040000C30C000000170000001200
310
0000540000002000000002000000000000000000000000000000000000000000000000000000000000000000F0BF535555555555C5BF000000000000000000000000000000000000000000000000000000000000F03F0C00000016000000040000C30C00000017000000120000005400000020000000020000000000000000
310
00000000000000000000000000000000000000000000000000F0BF0000000000000000000000000000000000000000000000000000000000000000000000000000F03F080000001F0000000C00000016000000000000C00C00000012000000FF7F00000C00000033000000000000000C00000013000000891300003C000000
310
0600000002000000442A4AEC85E1A540FD1D15B24CB791400000000000000000D4264AF8C691A6404E1BE6153E3B934000000000000000000C00000013000000112700003C0000000600000002000000D4264AF8C691A6404E1BE6153E3B93400000000000000000075A7D2BFA98A6404E1BE6153E3B934000000000000000
310
000C00000016000000000000C00C00000012000000FF7F00000C00000017000000000000000C000000130000009A3A00003C0000000600000002000000065A7D2BFA98A6404E1BE6153E3B93400000000000000000D3264AF8C6D2AA404E1BE6153E3B934000000000000000000C00000016000000000000C00C0000001200
310
0000FF7F00000C00000017000000FFFFFFFF0C0000003300000000000000
100
AcDbMLeader
300
CONTEXT_DATA{
 40
10.0
 10
2892.488613049735
 20
1230.810630412499
 30
0.0
 41
30.0
140
30.0
145
0.9
174
     6
175
     6
176
     0
177
     0
290
     1
304
{\C7;ウエイト　＠3.8ｋｇ\PSS400　φ310×φ210×12ｔ}
 11
0.0
 21
0.0
 31
1.0
340
1B
 12
2893.388613049736
 22
1266.810630412499
 32
0.0
 13
1.0
 23
0.0
 33
0.0
 42
0.0
 43
0.0
 44
0.0
 45
1.0
170
     1
 90
-1073741824
171
     1
172
     5
 91
-1073741824
141
0.0
 92
        0
291
     0
292
     0
173
     0
293
     0
142
0.0
143
0.0
294
     0
295
     0
296
     0
110
3082.710022485955
120
1374.147027125061
130
0.0
111
1.0
121
0.0
131
0.0
112
0.0
122
1.0
132
0.0
297
     0
302
LEADER{
290
     1
291
     1
 10
2888.888613049736
 20
1230.810630412499
 30
0.0
 11
1.0
 21
0.0
 31
0.0
 90
        0
 40
3.599999999999998
304
LEADER_LINE{
 10
2780.586624768556
 20
1111.621933175581
 30
0.0
 91
        0
305
}
303
}
301
}
340
281
 90
 17127168
170
     1
 91
-1056964608
341
1E
171
    -2
290
     1
291
     1
 41
0.36
342
28
 42
3.0
172
     2
343
1B
173
     6
 95
        6
174
     1
175
     0
 92
-1056964608
292
     0
 93
-1056964608
 10
1.0
 20
1.0
 30
1.0
 43
0.0
176
     0
293
     0
294
     0
178
     0
179
     3
 45
10.0
1001
ACAD_MLEADERVER
1070
     2
  0
INSERT
  5
263A
330
2
100
AcDbEntity
  8
外形線
100
AcDbBlockReference
 66
     1
  2
快工房表題欄1
 10
4073.447121833189
 20
151.1587226720112
 30
0.0
 41
10.0
 42
10.0
 43
10.0
  0
ATTRIB
  5
263B
330
263A
100
AcDbEntity
  8
文字
100
AcDbText
 10
4002.613788499873
 20
326.1587226720112
 30
0.0
 40
25.0
  1
A3
 72
     1
 11
4023.447121833206
 21
338.6587226720112
 31
0.0
100
AcDbAttribute
  2
A*
 70
     0
 74
     2
  0
ATTRIB
  5
263C
330
263A
100
AcDbEntity
  8
文字
100
AcDbText
 10
3673.447121833208
 20
326.1587226720112
 30
0.0
 40
25.0
  1

 72
     1
 11
3673.447121833208
 21
338.6587226720112
 31
0.0
100
AcDbAttribute
  2
JOB
 70
     0
 74
     2
  0
ATTRIB
  5
263D
330
263A
100
AcDbEntity
  8
文字
100
AcDbText
 10
3098.447121833226
 20
326.1587226720112
 30
0.0
 40
25.0
  1

 72
     1
 11
3098.447121833226
 21
338.6587226720112
 31
0.0
100
AcDbAttribute
  2
図面番号
 70
     0
 74
     2
  0
ATTRIB
  5
263E
330
263A
100
AcDbEntity
  8
文字
100
AcDbText
 10
3098.447121833226
 20
251.1587226720112
 30
0.0
 40
25.0
  1

 72
     1
 11
3098.447121833226
 21
263.6587226720112
 31
0.0
100
AcDbAttribute
  2
管理番号
 70
     0
 74
     2
  0
ATTRIB
  5
263F
330
263A
100
AcDbEntity
  8
文字
100
AcDbText
 10
3006.78045516656
 20
176.1587226720112
 30
0.0
 40
25.0
  1
2017.09.15
 72
     1
 11
3098.447121833226
 21
188.6587226720111
 31
0.0
100
AcDbAttribute
  2
年月日
 70
     0
 74
     2
  0
ATTRIB
  5
2640
330
263A
100
AcDbEntity
  8
文字
100
AcDbText
 10
2091.780455166559
 20
326.1587226720112
 30
0.0
 40
25.0
  1
車止め　ステンレスポールタイプ　置き式
 72
     1
 11
2373.447121833226
 21
338.6587226720112
 31
0.0
100
AcDbAttribute
  2
製品名称
 70
     0
 74
     2
  0
ATTRIB
  5
2641
330
263A
100
AcDbEntity
  8
文字
100
AcDbText
 10
2244.28045516656
 20
251.1587226720112
 30
0.0
 40
25.0
  1
KMB-002H-FS
 72
     1
 11
2373.447121833226
 21
263.6587226720112
 31
0.0
100
AcDbAttribute
  2
型番
 70
     0
 74
     2
  0
ATTRIB
  5
2642
330
263A
100
AcDbEntity
  8
文字
100
AcDbText
 10
2373.447121833226
 20
176.1587226720112
 30
0.0
 40
25.0
  1

 72
     1
 11
2373.447121833226
 21
188.6587226720111
 31
0.0
100
AcDbAttribute
  2
物件名称
 70
     0
 74
     2
  0
ATTRIB
  5
2643
330
263A
100
AcDbEntity
  8
文字
100
AcDbText
 10
1745.947121833225
 20
251.1587226720112
 30
0.0
 40
25.0
  1
図示
 72
     1
 11
1773.447121833225
 21
263.6587226720112
 31
0.0
100
AcDbAttribute
  2
縮尺
 70
     0
 74
     2
  0
ATTRIB
  5
2644
330
263A
100
AcDbEntity
  8
文字
100
AcDbText
 10
1748.447121833225
 20
176.1587226720112
 30
0.0
 40
25.0
  1
1/1
 72
     1
 11
1773.447121833225
 21
188.6587226720111
 31
0.0
100
AcDbAttribute
  2
番号
 70
     0
 74
     2
  0
ATTRIB
  5
2645
330
263A
100
AcDbEntity
  8
文字
100
AcDbText
 10
1515.113788499892
 20
326.1587226720112
 30
0.0
 40
25.0
  1
H
 72
     1
 11
1523.447121833225
 21
338.6587226720112
 31
0.0
100
AcDbAttribute
  2
設計
 70
     0
 74
     2
  0
ATTRIB
  5
2646
330
263A
100
AcDbEntity
  8
文字
100
AcDbText
 10
1515.113788499892
 20
251.1587226720112
 30
0.0
 40
25.0
  1
K
 72
     1
 11
1523.447121833225
 21
263.6587226720112
 31
0.0
100
AcDbAttribute
  2
製図
 70
     0
 74
     2
  0
ATTRIB
  5
2647
330
263A
100
AcDbEntity
  8
文字
100
AcDbText
 10
1515.113788499892
 20
176.1587226720112
 30
0.0
 40
25.0
  1
K
 72
     1
 11
1523.447121833225
 21
188.6587226720111
 31
0.0
100
AcDbAttribute
  2
検図
 70
     0
 74
     2
  0
ATTRIB
  5
2648
330
263A
100
AcDbEntity
  8
文字
100
AcDbText
 10
348.4471218331892
 20
251.1587226720112
 30
0.0
 40
25.0
  1

 72
     1
 11
348.4471218331892
 21
263.6587226720112
 31
0.0
100
AcDbAttribute
  2
符号１
 70
     0
 74
     2
  0
ATTRIB
  5
2649
330
263A
100
AcDbEntity
  8
文字
100
AcDbText
 10
723.447121833189
 20
251.1587226720112
 30
0.0
 40
25.0
  1

 72
     1
 11
723.447121833189
 21
263.6587226720112
 31
0.0
100
AcDbAttribute
  2
改定事項１
 70
     0
 74
     2
  0
ATTRIB
  5
264A
330
263A
100
AcDbEntity
  8
文字
100
AcDbText
 10
1198.447121833225
 20
251.1587226720112
 30
0.0
 40
25.0
  1

 72
     1
 11
1198.447121833225
 21
263.6587226720112
 31
0.0
100
AcDbAttribute
  2
改定年月日１
 70
     0
 74
     2
  0
ATTRIB
  5
264B
330
263A
100
AcDbEntity
  8
文字
100
AcDbText
 10
348.4471218331892
 20
176.1587226720112
 30
0.0
 40
25.0
  1

 72
     1
 11
348.4471218331892
 21
188.6587226720111
 31
0.0
100
AcDbAttribute
  2
符号２
 70
     0
 74
     2
  0
ATTRIB
  5
264C
330
263A
100
AcDbEntity
  8
文字
100
AcDbText
 10
723.447121833189
 20
176.1587226720112
 30
0.0
 40
25.0
  1

 72
     1
 11
723.447121833189
 21
188.6587226720111
 31
0.0
100
AcDbAttribute
  2
改定事項２
 70
     0
 74
     2
  0
ATTRIB
  5
264D
330
263A
100
AcDbEntity
  8
文字
100
AcDbText
 10
1198.447121833225
 20
176.1587226720112
 30
0.0
 40
25.0
  1

 72
     1
 11
1198.447121833225
 21
188.6587226720111
 31
0.0
100
AcDbAttribute
  2
改定年月日２
 70
     0
 74
     2
  0
SEQEND
  5
264E
330
263A
100
AcDbEntity
  8
DefPoints
  0
LINE
  5
3BA6
330
2
100
AcDbEntity
  8
細線
100
AcDbLine
 10
2798.586624768555
 20
1435.622233175581
 30
0.0
 11
2728.581624768557
 21
1435.622233175581
 31
0.0
  0
LINE
  5
3BA9
330
2
100
AcDbEntity
  8
細線
100
AcDbLine
 10
2780.586624768556
 20
1063.621933175581
 30
0.0
 11
2470.586624768555
 21
1063.621933175581
 31
0.0
  0
LINE
  5
3BAA
330
2
100
AcDbEntity
  8
細線
100
AcDbLine
 10
2780.586624768556
 20
1075.621933175581
 30
0.0
 11
2470.586624768555
 21
1075.621933175581
 31
0.0
  0
LINE
  5
3BAB
330
2
100
AcDbEntity
  8
細線
100
AcDbLine
 10
2780.586624768556
 20
1087.621933175581
 30
0.0
 11
2470.586624768555
 21
1087.621933175581
 31
0.0
  0
LINE
  5
3BAC
330
2
100
AcDbEntity
  8
細線
100
AcDbLine
 10
2780.586624768556
 20
1099.621933175581
 30
0.0
 11
2470.586624768555
 21
1099.621933175581
 31
0.0
  0
LINE
  5
3BAD
330
2
100
AcDbEntity
  8
細線
100
AcDbLine
 10
2780.586624768556
 20
1111.621933175581
 30
0.0
 11
2470.586624768555
 21
1111.621933175581
 31
0.0
  0
LINE
  5
3BAE
330
2
100
AcDbEntity
  8
細線
100
AcDbLine
 10
2780.586624768556
 20
1123.621933175581
 30
0.0
 11
2470.586624768555
 21
1123.621933175581
 31
0.0
  0
LINE
  5
3BB2
330
2
100
AcDbEntity
  8
外形線
100
AcDbLine
 10
2823.617771463197
 20
995.6138700283913
 30
0.0
 11
2427.5554780739
 21
995.6138700283913
 31
0.0
  0
LINE
  5
3BB3
330
2
100
AcDbEntity
  8
細線
100
AcDbLine
 10
2797.586624768556
 20
1135.621933175581
 30
0.0
 11
2453.586624768556
 21
1135.621933175581
 31
0.0
  0
LINE
  5
3BB4
330
2
100
AcDbEntity
  8
細線
100
AcDbLine
 10
2797.586624768556
 20
1141.621933175581
 30
0.0
 11
2453.586624768556
 21
1141.621933175581
 31
0.0
  0
LINE
  5
3BB5
330
2
100
AcDbEntity
  8
細線
100
AcDbLine
 10
2798.586624768555
 20
1430.622233175581
 30
0.0
 11
2452.586624768555
 21
1430.622233175581
 31
0.0
  0
LINE
  5
3BB6
330
2
100
AcDbEntity
  8
細線
100
AcDbLine
 10
2452.598624768556
 20
1447.622233175581
 30
0.0
 11
2798.574624768557
 21
1447.622233175581
 31
0.0
  0
ARC
  5
3BB7
330
2
100
AcDbEntity
  8
細線
100
AcDbCircle
 10
2625.586624768555
 20
1445.622233175581
 30
0.0
 40
173.0
100
AcDbArc
 50
0.0000404000019816
 51
180.0
  0
ARC
  5
3BB8
330
2
100
AcDbEntity
  8
外形線
100
AcDbCircle
 10
2625.586624768555
 20
1445.622233175581
 30
0.0
 40
175.0
100
AcDbArc
 50
0.0000400000040257
 51
180.0
  0
LINE
  5
3BB9
330
2
100
AcDbEntity
  8
細線
100
AcDbLine
 10
2450.586624768555
 20
1445.622233175581
 30
0.0
 11
2800.586624768556
 21
1445.622233175581
 31
0.0
  0
LINE
  5
3BBF
330
2
100
AcDbEntity
  8
基準線
 48
2.0
100
AcDbLine
 39
117.7949108950449
 10
2625.586624768555
 20
1642.83323317558
 30
0.0
 11
2625.586624768555
 21
963.1331331755824
 31
0.0
  0
LINE
  5
3BC0
330
2
100
AcDbEntity
  8
細線
100
AcDbLine
 10
2452.586624768555
 20
1007.606333175581
 30
0.0
 11
2452.58662438467
 21
1445.622233175581
 31
0.0
  0
LINE
  5
3BC1
330
2
100
AcDbEntity
  8
外形線
100
AcDbLine
 10
2450.586624768555
 20
1435.622233175581
 30
0.0
 11
2450.586624768555
 21
1002.60583317558
 31
0.0
  0
LINE
  5
3BC3
330
2
100
AcDbEntity
  8
基準線
 48
2.0
100
AcDbLine
 39
117.7949108950449
 10
1325.586624768555
 20
1641.971170028391
 30
0.0
 11
1325.586624768555
 21
964.8068700283907
 31
0.0
  0
LINE
  5
3BC6
330
2
100
AcDbEntity
  8
外形線
100
AcDbLine
 10
1150.586624768555
 20
1002.613870028391
 30
0.0
 11
1150.586624768555
 21
1435.614170028391
 31
0.0
  0
LINE
  5
3BC7
330
2
100
AcDbEntity
  8
外形線
100
AcDbLine
 10
1500.586624768555
 20
1435.614170028391
 30
0.0
 11
1500.586624768555
 21
1002.613870028391
 31
0.0
  0
LINE
  5
3BDC
330
2
100
AcDbEntity
  8
外形線
100
AcDbLine
 10
1525.586624768555
 20
995.6138700283913
 30
0.0
 11
1125.586624768555
 21
995.6138700283913
 31
0.0
  0
LINE
  5
3BDD
330
2
100
AcDbEntity
  8
外形線
100
AcDbLine
 10
1525.586624768555
 20
995.6138700283913
 30
0.0
 11
1125.586624768555
 21
995.6138700283913
 31
0.0
  0
LINE
  5
3BDE
330
2
100
AcDbEntity
  8
外形線
100
AcDbLine
 10
1525.586624768555
 20
995.6138700283913
 30
0.0
 11
1125.586624768555
 21
995.6138700283913
 31
0.0
  0
LINE
  5
3BE3
330
2
100
AcDbEntity
  8
外形線
100
AcDbLine
 10
1500.586624768555
 20
1002.613870028391
 30
0.0
 11
1150.586624768555
 21
1002.613870028391
 31
0.0
  0
LINE
  5
3BF8
330
2
100
AcDbEntity
  8
外形線
100
AcDbLine
 10
1153.586624768555
 20
1002.613870028391
 30
0.0
 11
1153.586624768555
 21
995.6138700283913
 31
0.0
  0
LINE
  5
3C00
330
2
100
AcDbEntity
  8
外形線
100
AcDbLine
 10
1497.586624768555
 20
1002.613870028391
 30
0.0
 11
1497.586624768555
 21
995.6138700283913
 31
0.0
  0
LINE
  5
3C01
330
2
100
AcDbEntity
  8
細線
100
AcDbLine
 10
2453.586624768556
 20
1141.621933175581
 30
0.0
 11
2453.586624768556
 21
1007.606333175583
 31
0.0
  0
LINE
  5
3C02
330
2
100
AcDbEntity
  8
細線
100
AcDbLine
 10
2455.586624768555
 20
1135.621933175581
 30
0.0
 11
2455.586624768555
 21
1007.606333175583
 31
0.0
  0
LINE
  5
3C03
330
2
100
AcDbEntity
  8
細線
100
AcDbLine
 10
2450.586624768555
 20
1007.606333175581
 30
0.0
 11
2468.586624768555
 21
1007.606333175581
 31
0.0
  0
LINE
  5
3C04
330
2
100
AcDbEntity
  8
細線
100
AcDbLine
 10
2450.586624768555
 20
1002.606333175581
 30
0.0
 11
2468.586624768555
 21
1002.606333175581
 31
0.0
  0
LINE
  5
3C05
330
2
100
AcDbEntity
  8
外形線
100
AcDbLine
 10
2453.586624768556
 20
1002.606333175581
 30
0.0
 11
2453.586624768556
 21
995.606433175582
 31
0.0
  0
POINT
  5
3C06
330
2
100
AcDbEntity
  8
DefPoints
  6
ByBlock
 62
     0
100
AcDbPoint
 10
2450.586624768555
 20
1002.60583317558
 30
0.0
  0
LINE
  5
3C07
330
2
100
AcDbEntity
  8
細線
100
AcDbLine
 10
2465.086624768555
 20
1000.606533175581
 30
0.0
 11
2457.086624768555
 21
1000.60613317558
 31
0.0
  0
LINE
  5
3C08
330
2
100
AcDbEntity
  8
細線
100
AcDbLine
 10
2464.586624768556
 20
996.606433175582
 30
0.0
 11
2457.586624768556
 21
996.6061331755804
 31
0.0
  0
LINE
  5
3C09
330
2
100
AcDbEntity
  8
細線
100
AcDbLine
 10
2463.086624768556
 20
1010.606433175582
 30
0.0
 11
2459.086624768556
 21
1010.606233175581
 31
0.0
  0
LINE
  5
3C0A
330
2
100
AcDbEntity
  8
細線
100
AcDbLine
 10
2457.086624768555
 20
1000.60613317558
 30
0.0
 11
2457.086624768555
 21
995.6066331755824
 31
0.0
  0
LINE
  5
3C0B
330
2
100
AcDbEntity
  8
細線
100
AcDbLine
 10
2457.586624768556
 20
996.6061331755804
 30
0.0
 11
2457.586624768556
 21
1000.60613317558
 31
0.0
  0
LINE
  5
3C0C
330
2
100
AcDbEntity
  8
基準線
100
AcDbLine
 39
117.7949108950449
 10
2461.086624768555
 20
1013.462033175581
 30
0.0
 11
2461.086624768555
 21
992.0228331755819
 31
0.0
  0
LINE
  5
3C0D
330
2
100
AcDbEntity
  8
細線
100
AcDbLine
 10
2459.086624768556
 20
1010.606233175581
 30
0.0
 11
2459.086624768556
 21
1007.606333175581
 31
0.0
  0
LINE
  5
3C0E
330
2
100
AcDbEntity
  8
細線
100
AcDbLine
 10
2459.086624768556
 20
1002.606333175581
 30
0.0
 11
2459.086624768556
 21
1000.606233175581
 31
0.0
  0
LINE
  5
3C0F
330
2
100
AcDbEntity
  8
細線
100
AcDbLine
 10
2465.086624768555
 20
995.606933175582
 30
0.0
 11
2465.086624768555
 21
1000.606533175581
 31
0.0
  0
LINE
  5
3C10
330
2
100
AcDbEntity
  8
細線
100
AcDbLine
 10
2464.586624768556
 20
1000.606533175581
 30
0.0
 11
2464.586624768556
 21
996.606433175582
 31
0.0
  0
LINE
  5
3C11
330
2
100
AcDbEntity
  8
細線
100
AcDbLine
 10
2463.086624768556
 20
1000.606433175582
 30
0.0
 11
2463.086624768556
 21
1002.606333175581
 31
0.0
  0
LINE
  5
3C12
330
2
100
AcDbEntity
  8
細線
100
AcDbLine
 10
2463.086624768556
 20
1007.606333175581
 30
0.0
 11
2463.086624768556
 21
1010.606433175582
 31
0.0
  0
LINE
  5
3C13
330
2
100
AcDbEntity
  8
細線
100
AcDbLine
 10
2468.586624768555
 20
1007.606333175581
 30
0.0
 11
2468.586624768555
 21
995.6071331755806
 31
0.0
  0
LINE
  5
3C15
330
2
100
AcDbEntity
  8
細線
100
AcDbLine
 10
2605.585624768555
 20
1087.621933175581
 30
0.0
 11
2470.586624768555
 21
1087.621933175581
 31
0.0
  0
LINE
  5
3C16
330
2
100
AcDbEntity
  8
細線
100
AcDbLine
 10
2605.585624768555
 20
1087.621933175581
 30
0.0
 11
2470.586624768555
 21
1087.621933175581
 31
0.0
  0
LINE
  5
3C17
330
2
100
AcDbEntity
  8
細線
100
AcDbLine
 10
2504.186624768558
 20
1060.121633175582
 30
0.0
 11
2491.986624768558
 21
1060.121633175582
 31
0.0
  0
LINE
  5
3C18
330
2
100
AcDbEntity
  8
細線
100
AcDbLine
 10
2491.836624768556
 20
1062.02153317558
 30
0.0
 11
2504.336624768555
 21
1062.02153317558
 31
0.0
  0
LINE
  5
3C19
330
2
100
AcDbEntity
  8
細線
100
AcDbLine
 10
2470.586624768555
 20
1135.621933175581
 30
0.0
 11
2470.586624768555
 21
1063.621933175581
 31
0.0
  0
LINE
  5
3C1A
330
2
100
AcDbEntity
  8
細線
100
AcDbLine
 10
2491.986624768558
 20
1060.121633175582
 30
0.0
 11
2491.986624768558
 21
1062.02153317558
 31
0.0
  0
LINE
  5
3C1B
330
2
100
AcDbEntity
  8
細線
100
AcDbLine
 10
2491.836624768556
 20
1063.621633175582
 30
0.0
 11
2491.836624768556
 21
1062.02153317558
 31
0.0
  0
LINE
  5
3C1C
330
2
100
AcDbEntity
  8
細線
100
AcDbLine
 10
2470.586624768555
 20
1123.621933175581
 30
0.0
 11
2470.586624768555
 21
1135.621933175581
 31
0.0
  0
LINE
  5
3C1D
330
2
100
AcDbEntity
  8
細線
100
AcDbLine
 10
2520.586624768555
 20
1063.621933175581
 30
0.0
 11
2520.586624768555
 21
1135.621933175581
 31
0.0
  0
LINE
  5
3C1E
330
2
100
AcDbEntity
  8
基準線
100
AcDbLine
 39
117.7949108950449
 10
2498.086624768556
 20
1154.107233175581
 30
0.0
 11
2498.086624768556
 21
1049.33223317558
 31
0.0
  0
LINE
  5
3C1F
330
2
100
AcDbEntity
  8
細線
100
AcDbLine
 10
2493.086624768555
 20
1054.121633175582
 30
0.0
 11
2493.086624768555
 21
1060.121633175582
 31
0.0
  0
LINE
  5
3C20
330
2
100
AcDbEntity
  8
細線
100
AcDbLine
 10
2503.086624768556
 20
1060.121633175582
 30
0.0
 11
2503.086624768556
 21
1054.121633175582
 31
0.0
  0
LINE
  5
3C21
330
2
100
AcDbEntity
  8
細線
100
AcDbLine
 10
2503.086624768556
 20
1054.121633175582
 30
0.0
 11
2493.086624768555
 21
1054.121633175582
 31
0.0
  0
LINE
  5
3C22
330
2
100
AcDbEntity
  8
細線
100
AcDbLine
 10
2504.186624768558
 20
1062.02153317558
 30
0.0
 11
2504.186624768558
 21
1060.121633175582
 31
0.0
  0
LINE
  5
3C23
330
2
100
AcDbEntity
  8
細線
100
AcDbLine
 10
2504.336624768555
 20
1062.02153317558
 30
0.0
 11
2504.336624768555
 21
1063.621633175582
 31
0.0
  0
LINE
  5
3C24
330
2
100
AcDbEntity
  8
細線
100
AcDbLine
 10
2501.086624768556
 20
1141.621933175581
 30
0.0
 11
2501.086624768556
 21
1150.121633175582
 31
0.0
  0
LINE
  5
3C25
330
2
100
AcDbEntity
  8
細線
100
AcDbLine
 10
2495.086624768556
 20
1150.121633175582
 30
0.0
 11
2495.086624768556
 21
1141.621933175581
 31
0.0
  0
LINE
  5
3C26
330
2
100
AcDbEntity
  8
細線
100
AcDbLine
 10
2501.086624768556
 20
1150.121633175582
 30
0.0
 11
2495.086624768556
 21
1150.121633175582
 31
0.0
  0
LINE
  5
3C27
330
2
100
AcDbEntity
  8
細線
100
AcDbLine
 10
2565.582624768556
 20
1135.621933175581
 30
0.0
 11
2565.586624768556
 21
1141.621933175581
 31
0.0
  0
LINE
  5
3C28
330
2
100
AcDbEntity
  8
細線
100
AcDbLine
 10
2730.586624768556
 20
1063.621933175581
 30
0.0
 11
2730.586624768556
 21
1135.621933175581
 31
0.0
  0
LINE
  5
3C29
330
2
100
AcDbEntity
  8
基準線
100
AcDbLine
 39
117.7949108950449
 10
2753.086624768556
 20
1154.107233175581
 30
0.0
 11
2753.086624768556
 21
1049.33223317558
 31
0.0
  0
LINE
  5
3C2A
330
2
100
AcDbEntity
  8
細線
100
AcDbLine
 10
2758.086624768556
 20
1054.121633175582
 30
0.0
 11
2758.086624768556
 21
1060.121633175582
 31
0.0
  0
LINE
  5
3C2B
330
2
100
AcDbEntity
  8
細線
100
AcDbLine
 10
2748.086624768556
 20
1060.121633175582
 30
0.0
 11
2748.086624768556
 21
1054.121633175582
 31
0.0
  0
LINE
  5
3C2C
330
2
100
AcDbEntity
  8
細線
100
AcDbLine
 10
2748.086624768556
 20
1054.121633175582
 30
0.0
 11
2758.086624768556
 21
1054.121633175582
 31
0.0
  0
LINE
  5
3C2D
330
2
100
AcDbEntity
  8
細線
100
AcDbLine
 10
2759.336624768556
 20
1062.02153317558
 30
0.0
 11
2746.836624768556
 21
1062.02153317558
 31
0.0
  0
LINE
  5
3C2E
330
2
100
AcDbEntity
  8
細線
100
AcDbLine
 10
2746.986624768557
 20
1060.121633175582
 30
0.0
 11
2759.186624768558
 21
1060.121633175582
 31
0.0
  0
LINE
  5
3C2F
330
2
100
AcDbEntity
  8
細線
100
AcDbLine
 10
2746.836624768556
 20
1062.02153317558
 30
0.0
 11
2746.836624768556
 21
1063.621633175582
 31
0.0
  0
LINE
  5
3C30
330
2
100
AcDbEntity
  8
細線
100
AcDbLine
 10
2746.986624768557
 20
1062.02153317558
 30
0.0
 11
2746.986624768557
 21
1060.121633175582
 31
0.0
  0
LINE
  5
3C31
330
2
100
AcDbEntity
  8
細線
100
AcDbLine
 10
2759.336624768556
 20
1063.621633175582
 30
0.0
 11
2759.336624768556
 21
1062.02153317558
 31
0.0
  0
LINE
  5
3C32
330
2
100
AcDbEntity
  8
細線
100
AcDbLine
 10
2759.186624768558
 20
1060.121633175582
 30
0.0
 11
2759.186624768558
 21
1062.02153317558
 31
0.0
  0
LINE
  5
3C33
330
2
100
AcDbEntity
  8
細線
100
AcDbLine
 10
2685.583624768555
 20
1135.621933175581
 30
0.0
 11
2685.586624768556
 21
1141.621933175581
 31
0.0
  0
LINE
  5
3C34
330
2
100
AcDbEntity
  8
細線
100
AcDbLine
 10
2750.086624768556
 20
1150.121633175582
 30
0.0
 11
2756.086624768555
 21
1150.121633175582
 31
0.0
  0
LINE
  5
3C35
330
2
100
AcDbEntity
  8
細線
100
AcDbLine
 10
2750.086624768556
 20
1141.621933175581
 30
0.0
 11
2750.086624768556
 21
1150.121633175582
 31
0.0
  0
LINE
  5
3C36
330
2
100
AcDbEntity
  8
細線
100
AcDbLine
 10
2756.086624768555
 20
1150.121633175582
 30
0.0
 11
2756.086624768555
 21
1141.621933175581
 31
0.0
  0
LINE
  5
3C40
330
2
100
AcDbEntity
  8
外形線
100
AcDbLine
 10
1150.586624768555
 20
1445.614170028391
 30
0.0
 11
1500.586624768555
 21
1445.614170028391
 31
0.0
  0
LINE
  5
3C41
330
2
100
AcDbEntity
  8
外形線
100
AcDbLine
 10
1150.586624768555
 20
1435.614170028391
 30
0.0
 11
1500.586624768555
 21
1435.614170028391
 31
0.0
  0
ARC
  5
3C42
330
2
100
AcDbEntity
  8
外形線
100
AcDbCircle
 10
1325.586624768555
 20
1445.614170028391
 30
0.0
 40
175.0
100
AcDbArc
 50
0.0000400000040257
 51
180.0
  0
LINE
  5
3C43
330
2
100
AcDbEntity
  8
外形線
100
AcDbLine
 10
1152.086624768555
 20
1445.614170028391
 30
0.0
 11
1152.086624768555
 21
1435.614170028391
 31
0.0
  0
POINT
  5
3C44
330
2
100
AcDbEntity
  8
DefPoints
  6
ByBlock
 62
     0
100
AcDbPoint
 10
1325.586624768555
 20
1445.614170028391
 30
0.0
  0
LINE
  5
3C4A
330
2
100
AcDbEntity
  8
外形線
100
AcDbLine
 10
1499.086624768555
 20
1445.614170028391
 30
0.0
 11
1499.086624768555
 21
1435.614170028391
 31
0.0
  0
LINE
  5
3C4C
330
2
100
AcDbEntity
  8
外形線
100
AcDbLine
 10
2720.581624768556
 20
1435.622233175581
 30
0.0
 11
2530.591624768556
 21
1435.622233175581
 31
0.0
  0
LINE
  5
3C4D
330
2
100
AcDbEntity
  8
基準線
100
AcDbLine
 39
117.7949108950449
 10
2526.591624768558
 20
1459.42123317558
 30
0.0
 11
2526.591624768558
 21
1405.423233175581
 31
0.0
  0
LINE
  5
3C4E
330
2
100
AcDbEntity
  8
細線
100
AcDbLine
 10
2530.344624768557
 20
1427.022233175581
 30
0.0
 11
2530.344624768557
 21
1420.522233175581
 31
0.0
  0
LINE
  5
3C4F
330
2
100
AcDbEntity
  8
細線
100
AcDbLine
 10
2522.838624768556
 20
1427.022233175581
 30
0.0
 11
2522.838624768556
 21
1420.522233175581
 31
0.0
  0
LINE
  5
3C50
330
2
100
AcDbEntity
  8
細線
100
AcDbLine
 10
2534.096624768558
 20
1427.022233175581
 30
0.0
 11
2534.096624768558
 21
1420.522233175581
 31
0.0
  0
LINE
  5
3C51
330
2
100
AcDbEntity
  8
細線
100
AcDbLine
 10
2519.085624768556
 20
1420.522233175581
 30
0.0
 11
2519.085624768556
 21
1427.022233175581
 31
0.0
  0
LINE
  5
3C52
330
2
100
AcDbEntity
  8
細線
100
AcDbLine
 10
2530.591624768556
 20
1412.622233175581
 30
0.0
 11
2522.591624768558
 21
1412.622233175581
 31
0.0
  0
LINE
  5
3C53
330
2
100
AcDbEntity
  8
細線
100
AcDbLine
 10
2534.096624768558
 20
1420.522233175581
 30
0.0
 11
2519.085624768556
 21
1420.522233175581
 31
0.0
  0
LINE
  5
3C54
330
2
100
AcDbEntity
  8
細線
100
AcDbLine
 10
2522.591624768558
 20
1412.622233175581
 30
0.0
 11
2522.591624768558
 21
1420.522233175581
 31
0.0
  0
LINE
  5
3C55
330
2
100
AcDbEntity
  8
細線
100
AcDbLine
 10
2530.591624768556
 20
1420.522233175581
 30
0.0
 11
2530.591624768556
 21
1412.622233175581
 31
0.0
  0
LINE
  5
3C56
330
2
100
AcDbEntity
  8
細線
100
AcDbLine
 10
2522.591624768558
 20
1435.622233175581
 30
0.0
 11
2452.586624393434
 21
1435.622233175581
 31
0.0
  0
LINE
  5
3C57
330
2
100
AcDbEntity
  8
外形線
100
AcDbLine
 10
2451.586624768556
 20
1445.622233175581
 30
0.0
 11
2451.586624768556
 21
1435.622233175581
 31
0.0
  0
LINE
  5
3C58
330
2
100
AcDbEntity
  8
外形線
100
AcDbLine
 10
2451.586624768556
 20
1435.622233175581
 30
0.0
 11
2450.586624768555
 21
1435.622233175581
 31
0.0
  0
LINE
  5
3C59
330
2
100
AcDbEntity
  8
細線
100
AcDbLine
 10
2518.891624768556
 20
1427.022233175581
 30
0.0
 11
2534.291624768557
 21
1427.022233175581
 31
0.0
  0
LINE
  5
3C5A
330
2
100
AcDbEntity
  8
細線
100
AcDbLine
 10
2535.091624768556
 20
1429.022233175581
 30
0.0
 11
2518.091624768556
 21
1429.022233175581
 31
0.0
  0
LINE
  5
3C5B
330
2
100
AcDbEntity
  8
細線
100
AcDbLine
 10
2534.096624768558
 20
1453.122233175581
 30
0.0
 11
2519.085624768556
 21
1453.122233175581
 31
0.0
  0
LINE
  5
3C5C
330
2
100
AcDbEntity
  8
細線
100
AcDbLine
 10
2522.591624768558
 20
1445.622233175581
 30
0.0
 11
2522.591624768558
 21
1430.622233175581
 31
0.0
  0
LINE
  5
3C5D
330
2
100
AcDbEntity
  8
細線
100
AcDbLine
 10
2522.838624768556
 20
1453.122233175581
 30
0.0
 11
2522.838624768556
 21
1447.622233175581
 31
0.0
  0
LINE
  5
3C5E
330
2
100
AcDbEntity
  8
細線
100
AcDbLine
 10
2518.891624768556
 20
1429.022233175581
 30
0.0
 11
2518.891624768556
 21
1427.022233175581
 31
0.0
  0
LINE
  5
3C5F
330
2
100
AcDbEntity
  8
細線
100
AcDbLine
 10
2518.091624768556
 20
1429.022233175581
 30
0.0
 11
2518.091624768556
 21
1430.622233175581
 31
0.0
  0
LINE
  5
3C60
330
2
100
AcDbEntity
  8
細線
100
AcDbLine
 10
2519.085624768556
 20
1453.122233175581
 30
0.0
 11
2519.085624768556
 21
1447.622233175581
 31
0.0
  0
LINE
  5
3C61
330
2
100
AcDbEntity
  8
細線
100
AcDbLine
 10
2530.591624768556
 20
1445.622233175581
 30
0.0
 11
2530.591624768556
 21
1430.622233175581
 31
0.0
  0
LINE
  5
3C62
330
2
100
AcDbEntity
  8
細線
100
AcDbLine
 10
2530.344624768557
 20
1453.122233175581
 30
0.0
 11
2530.344624768557
 21
1447.622233175581
 31
0.0
  0
LINE
  5
3C63
330
2
100
AcDbEntity
  8
細線
100
AcDbLine
 10
2535.586624768555
 20
1435.622233175581
 30
0.0
 11
2535.586624768555
 21
1430.622233175581
 31
0.0
  0
LINE
  5
3C64
330
2
100
AcDbEntity
  8
細線
100
AcDbLine
 10
2534.291624768557
 20
1427.022233175581
 30
0.0
 11
2534.291624768557
 21
1429.022233175581
 31
0.0
  0
LINE
  5
3C65
330
2
100
AcDbEntity
  8
細線
100
AcDbLine
 10
2535.091624768556
 20
1430.622233175581
 30
0.0
 11
2535.091624768556
 21
1429.022233175581
 31
0.0
  0
LINE
  5
3C66
330
2
100
AcDbEntity
  8
細線
100
AcDbLine
 10
2534.096624768558
 20
1447.622233175581
 30
0.0
 11
2534.096624768558
 21
1453.122233175581
 31
0.0
  0
LINE
  5
3C67
330
2
100
AcDbEntity
  8
細線
100
AcDbLine
 10
2717.076624768557
 20
1427.022233175581
 30
0.0
 11
2717.076624768557
 21
1420.522233175581
 31
0.0
  0
LINE
  5
3C68
330
2
100
AcDbEntity
  8
細線
100
AcDbLine
 10
2732.087624768556
 20
1420.522233175581
 30
0.0
 11
2732.087624768556
 21
1427.022233175581
 31
0.0
  0
LINE
  5
3C69
330
2
100
AcDbEntity
  8
細線
100
AcDbLine
 10
2728.334624768555
 20
1427.022233175581
 30
0.0
 11
2728.334624768555
 21
1420.522233175581
 31
0.0
  0
LINE
  5
3C6A
330
2
100
AcDbEntity
  8
細線
100
AcDbLine
 10
2720.828624768558
 20
1427.022233175581
 30
0.0
 11
2720.828624768558
 21
1420.522233175581
 31
0.0
  0
LINE
  5
3C6B
330
2
100
AcDbEntity
  8
基準線
100
AcDbLine
 39
117.7949108950449
 10
2724.581624768556
 20
1459.42123317558
 30
0.0
 11
2724.581624768556
 21
1405.423233175581
 31
0.0
  0
LINE
  5
3C6C
330
2
100
AcDbEntity
  8
細線
100
AcDbLine
 10
2717.076624768557
 20
1420.522233175581
 30
0.0
 11
2732.087624768556
 21
1420.522233175581
 31
0.0
  0
LINE
  5
3C6D
330
2
100
AcDbEntity
  8
細線
100
AcDbLine
 10
2720.581624768556
 20
1412.622233175581
 30
0.0
 11
2728.581624768557
 21
1412.622233175581
 31
0.0
  0
LINE
  5
3C6E
330
2
100
AcDbEntity
  8
細線
100
AcDbLine
 10
2720.581624768556
 20
1420.522233175581
 30
0.0
 11
2720.581624768556
 21
1412.622233175581
 31
0.0
  0
LINE
  5
3C6F
330
2
100
AcDbEntity
  8
細線
100
AcDbLine
 10
2728.581624768557
 20
1412.622233175581
 30
0.0
 11
2728.581624768557
 21
1420.522233175581
 31
0.0
  0
LINE
  5
3C70
330
2
100
AcDbEntity
  8
細線
100
AcDbLine
 10
2717.076624768557
 20
1453.122233175581
 30
0.0
 11
2732.087624768556
 21
1453.122233175581
 31
0.0
  0
LINE
  5
3C71
330
2
100
AcDbEntity
  8
細線
100
AcDbLine
 10
2732.281624768555
 20
1427.022233175581
 30
0.0
 11
2716.881624768558
 21
1427.022233175581
 31
0.0
  0
LINE
  5
3C72
330
2
100
AcDbEntity
  8
細線
100
AcDbLine
 10
2716.081624768556
 20
1429.022233175581
 30
0.0
 11
2733.081624768556
 21
1429.022233175581
 31
0.0
  0
LINE
  5
3C73
330
2
100
AcDbEntity
  8
細線
100
AcDbLine
 10
2715.586624768556
 20
1435.622233175581
 30
0.0
 11
2715.586624768556
 21
1430.622233175581
 31
0.0
  0
LINE
  5
3C74
330
2
100
AcDbEntity
  8
細線
100
AcDbLine
 10
2717.076624768557
 20
1447.622233175581
 30
0.0
 11
2717.076624768557
 21
1453.122233175581
 31
0.0
  0
LINE
  5
3C75
330
2
100
AcDbEntity
  8
細線
100
AcDbLine
 10
2716.081624768556
 20
1430.622233175581
 30
0.0
 11
2716.081624768556
 21
1429.022233175581
 31
0.0
  0
LINE
  5
3C76
330
2
100
AcDbEntity
  8
細線
100
AcDbLine
 10
2716.881624768558
 20
1427.022233175581
 30
0.0
 11
2716.881624768558
 21
1429.022233175581
 31
0.0
  0
LINE
  5
3C77
330
2
100
AcDbEntity
  8
細線
100
AcDbLine
 10
2720.828624768558
 20
1453.122233175581
 30
0.0
 11
2720.828624768558
 21
1447.622233175581
 31
0.0
  0
LINE
  5
3C78
330
2
100
AcDbEntity
  8
細線
100
AcDbLine
 10
2720.581624768556
 20
1445.622233175581
 30
0.0
 11
2720.581624768556
 21
1430.622233175581
 31
0.0
  0
LINE
  5
3C79
330
2
100
AcDbEntity
  8
細線
100
AcDbLine
 10
2733.081624768556
 20
1429.022233175581
 30
0.0
 11
2733.081624768556
 21
1430.622233175581
 31
0.0
  0
LINE
  5
3C7A
330
2
100
AcDbEntity
  8
細線
100
AcDbLine
 10
2732.087624768556
 20
1453.122233175581
 30
0.0
 11
2732.087624768556
 21
1447.622233175581
 31
0.0
  0
LINE
  5
3C7B
330
2
100
AcDbEntity
  8
細線
100
AcDbLine
 10
2728.334624768555
 20
1453.122233175581
 30
0.0
 11
2728.334624768555
 21
1447.622233175581
 31
0.0
  0
LINE
  5
3C7C
330
2
100
AcDbEntity
  8
細線
100
AcDbLine
 10
2732.281624768555
 20
1429.022233175581
 30
0.0
 11
2732.281624768555
 21
1427.022233175581
 31
0.0
  0
LINE
  5
3C7D
330
2
100
AcDbEntity
  8
細線
100
AcDbLine
 10
2728.581624768557
 20
1445.622233175581
 30
0.0
 11
2728.581624768557
 21
1430.622233175581
 31
0.0
  0
LINE
  5
3C83
330
2
100
AcDbEntity
  8
細線
100
AcDbLine
 10
2798.586624768555
 20
1007.606333175581
 30
0.0
 11
2798.586624768555
 21
1445.622233175581
 31
0.0
  0
LINE
  5
3C84
330
2
100
AcDbEntity
  8
外形線
100
AcDbLine
 10
2800.586624768556
 20
1002.606333175581
 30
0.0
 11
2800.586624768556
 21
1435.622233175581
 31
0.0
  0
LINE
  5
3C87
330
2
100
AcDbEntity
  8
細線
100
AcDbLine
 10
2795.586624768555
 20
1135.621933175581
 30
0.0
 11
2795.586624768555
 21
1007.606333175583
 31
0.0
  0
LINE
  5
3C88
330
2
100
AcDbEntity
  8
細線
100
AcDbLine
 10
2797.586624768556
 20
1141.621933175581
 30
0.0
 11
2797.586624768556
 21
1007.606333175583
 31
0.0
  0
LINE
  5
3C8A
330
2
100
AcDbEntity
  8
細線
100
AcDbLine
 10
2800.586624768556
 20
1002.606333175581
 30
0.0
 11
2782.586624768555
 21
1002.606333175581
 31
0.0
  0
LINE
  5
3C8B
330
2
100
AcDbEntity
  8
細線
100
AcDbLine
 10
2800.586624768556
 20
1007.606333175581
 30
0.0
 11
2782.586624768555
 21
1007.606333175581
 31
0.0
  0
LINE
  5
3C8C
330
2
100
AcDbEntity
  8
細線
100
AcDbLine
 10
2782.586624768555
 20
1007.606333175581
 30
0.0
 11
2782.586624768555
 21
995.6071331755806
 31
0.0
  0
LINE
  5
3C8D
330
2
100
AcDbEntity
  8
細線
100
AcDbLine
 10
2788.086624768555
 20
1010.606433175582
 30
0.0
 11
2792.086624768555
 21
1010.606233175581
 31
0.0
  0
LINE
  5
3C8E
330
2
100
AcDbEntity
  8
細線
100
AcDbLine
 10
2786.586624768555
 20
996.606433175582
 30
0.0
 11
2793.586624768555
 21
996.6061331755804
 31
0.0
  0
LINE
  5
3C8F
330
2
100
AcDbEntity
  8
細線
100
AcDbLine
 10
2786.086624768556
 20
1000.606533175581
 30
0.0
 11
2794.086624768556
 21
1000.60613317558
 31
0.0
  0
LINE
  5
3C90
330
2
100
AcDbEntity
  8
細線
100
AcDbLine
 10
2788.086624768555
 20
1007.606333175581
 30
0.0
 11
2788.086624768555
 21
1010.606433175582
 31
0.0
  0
LINE
  5
3C91
330
2
100
AcDbEntity
  8
細線
100
AcDbLine
 10
2788.086624768555
 20
1000.606433175582
 30
0.0
 11
2788.086624768555
 21
1002.606333175581
 31
0.0
  0
LINE
  5
3C92
330
2
100
AcDbEntity
  8
基準線
100
AcDbLine
 39
117.7949108950449
 10
2790.086624768556
 20
1013.462033175581
 30
0.0
 11
2790.086624768556
 21
992.0228331755819
 31
0.0
  0
LINE
  5
3C93
330
2
100
AcDbEntity
  8
細線
100
AcDbLine
 10
2786.586624768555
 20
1000.606533175581
 30
0.0
 11
2786.586624768555
 21
996.606433175582
 31
0.0
  0
LINE
  5
3C94
330
2
100
AcDbEntity
  8
細線
100
AcDbLine
 10
2786.086624768556
 20
995.606933175582
 30
0.0
 11
2786.086624768556
 21
1000.606533175581
 31
0.0
  0
LINE
  5
3C95
330
2
100
AcDbEntity
  8
細線
100
AcDbLine
 10
2792.086624768555
 20
1002.606333175581
 30
0.0
 11
2792.086624768555
 21
1000.606233175581
 31
0.0
  0
LINE
  5
3C96
330
2
100
AcDbEntity
  8
細線
100
AcDbLine
 10
2792.086624768555
 20
1010.606233175581
 30
0.0
 11
2792.086624768555
 21
1007.606333175581
 31
0.0
  0
LINE
  5
3C97
330
2
100
AcDbEntity
  8
細線
100
AcDbLine
 10
2793.586624768555
 20
996.6061331755804
 30
0.0
 11
2793.586624768555
 21
1000.60613317558
 31
0.0
  0
LINE
  5
3C98
330
2
100
AcDbEntity
  8
細線
100
AcDbLine
 10
2794.086624768556
 20
1000.60613317558
 30
0.0
 11
2794.086624768556
 21
995.6066331755824
 31
0.0
  0
POINT
  5
3C99
330
2
100
AcDbEntity
  8
DefPoints
  6
ByBlock
 62
     0
100
AcDbPoint
 10
2800.586624768556
 20
1002.606333175581
 30
0.0
  0
LINE
  5
3C9A
330
2
100
AcDbEntity
  8
外形線
100
AcDbLine
 10
2797.586624768556
 20
1002.606333175581
 30
0.0
 11
2797.586624768556
 21
995.606433175582
 31
0.0
  0
LINE
  5
3C9B
330
2
100
AcDbEntity
  8
細線
100
AcDbLine
 10
2780.586624768556
 20
1135.621933175581
 30
0.0
 11
2780.586624768556
 21
1063.621933175581
 31
0.0
  0
LINE
  5
3C9D
330
2
100
AcDbEntity
  8
外形線
100
AcDbLine
 10
2799.586624768556
 20
1435.622233175581
 30
0.0
 11
2800.586624768556
 21
1435.622233175581
 31
0.0
  0
LINE
  5
3C9E
330
2
100
AcDbEntity
  8
外形線
100
AcDbLine
 10
2799.586624768556
 20
1445.622233175581
 30
0.0
 11
2799.586624768556
 21
1435.622233175581
 31
0.0
  0
HATCH
  5
3CA0
330
2
100
AcDbEntity
  8
ハッチング
100
AcDbHatch
 10
0.0
 20
0.0
 30
0.0
210
0.0
220
0.0
230
1.0
  2
HONEY
 70
     0
 71
     0
 91
        2
 92
        7
 72
     0
 73
     1
 93
        4
 10
1325.586624768555
 20
1435.614170028391
 10
1325.586624768555
 20
1445.614170028391
 10
1152.086624768555
 20
1445.614170028391
 10
1152.086624768555
 20
1435.614170028391
 97
        0
 92
        7
 72
     0
 73
     1
 93
        4
 10
1499.086624768555
 20
1435.614170028391
 10
1499.086624768555
 20
1445.614170028391
 10
1325.586624768555
 20
1445.614170028391
 10
1325.586624768555
 20
1435.614170028391
 97
        0
 75
     0
 76
     0
 52
44.99999063801582
 41
30.0
 77
     0
 78
     3
 53
44.99999063801582
 43
-512.2074068333477
 44
437.3338144561126
 45
1.681080045484806
 46
6.273871993314443
 79
     2
 49
3.75
 49
-7.5
 53
164.9999906380158
 43
-512.2074068333477
 44
437.3338144561126
 45
-6.273872549044424
 46
-1.681077971472279
 79
     2
 49
3.75
 49
-7.5
 53
104.9999906380157
 43
-512.2074068333477
 44
437.3338144561126
 45
-4.592792503559619
 46
4.592794021842165
 79
     2
 49
-7.499999999999993
 49
3.749999999999996
 47
0.6840312595579107
 98
        2
 10
1257.34451304638
 20
1440.524248164698
 10
1383.291955073494
 20
1440.524248164698
  0
DIMENSION
  5
466E
330
2
100
AcDbEntity
  8
寸法線
100
AcDbDimension
  2
*D12
 10
2300.586624768558
 20
1435.622233175581
 30
0.0
 11
2275.586624768558
 21
1215.618051601986
 31
0.0
 70
    32
 71
     5
 42
440.0083631471898
  3
ベース
100
AcDbAlignedDimension
 13
2427.5554780739
 23
995.6138700283913
 33
0.0
 14
2450.586624768555
 24
1435.622233175581
 34
0.0
 50
90.0
100
AcDbRotatedDimension
  0
DIMENSION
  5
466F
330
2
100
AcDbEntity
  8
寸法線
100
AcDbDimension
  2
*D13
 10
2300.586624768559
 20
1445.622233175581
 30
0.0
 11
2275.586624768559
 21
1440.62223317558
 31
0.0
 70
    32
 71
     5
 42
10.0
  3
ベース
100
AcDbAlignedDimension
 13
2450.586624768555
 23
1435.622233175581
 33
0.0
 14
2450.586624768555
 24
1445.622233175581
 34
0.0
 50
90.0
100
AcDbRotatedDimension
  0
DIMENSION
  5
4670
330
2
100
AcDbEntity
  8
寸法線
100
AcDbDimension
  2
*D14
 10
2225.586624768559
 20
1620.622233175571
 30
0.0
 11
2200.586624768559
 21
1308.11805160198
 31
0.0
 70
    32
 71
     5
 42
625.0083631471791
  3
ベース
100
AcDbAlignedDimension
 13
2427.5554780739
 23
995.6138700283913
 33
0.0
 14
2553.173588109805
 24
1620.62223317557
 34
0.0
 50
90.0
100
AcDbRotatedDimension
  0
DIMENSION
  5
4671
330
2
100
AcDbEntity
  8
寸法線
100
AcDbDimension
  2
*D15
 10
2300.58662476856
 20
1620.622233175571
 30
0.0
 11
2275.58662476856
 21
1533.122233175575
 31
0.0
 70
    32
 71
     5
 42
174.9999999999893
  3
ベース
100
AcDbAlignedDimension
 13
2450.586624768555
 23
1445.622233175581
 33
0.0
 14
2553.173588109805
 24
1620.62223317557
 34
0.0
 50
90.0
100
AcDbRotatedDimension
  0
DIMENSION
  5
46D5
330
2
100
AcDbEntity
  8
寸法線
100
AcDbDimension
  2
*D16
 10
2950.586624768558
 20
1141.621933175581
 30
0.0
 11
2925.586624768558
 21
1068.617901601985
 31
0.0
 70
    32
 71
     5
 42
146.0080631471897
  3
ベース
100
AcDbAlignedDimension
 13
2823.617771463197
 23
995.6138700283913
 33
0.0
 14
2797.586624768556
 24
1141.621933175581
 34
0.0
 50
90.0
100
AcDbRotatedDimension
  0
MTEXT
  5
56FB
330
2
100
AcDbEntity
  8
文字
100
AcDbMText
 10
2698.341873876765
 20
424.4112153386886
 30
0.0
 40
30.0
 41
0.0
 71
     7
 72
     5
  1
製品見え掛り面はステンレス（SUS　HL仕上げ）製とする。\P本製品は、（一社）日本公園施設業協会会員SP・SPL表示認定企業製品です。\P本製品は、（一社）日本公園施設業協会の賠償責任保険の加入製品とする。\P本製品の設計図面の変更、模倣を禁止します。
 73
     1
 44
1.0
  0
LINE
  5
56FC
330
2
100
AcDbEntity
  8
外形線
100
AcDbLine
 10
2797.586624768556
 20
1002.606333175581
 30
0.0
 11
2800.586624768556
 21
1002.606333175581
 31
0.0
  0
LINE
  5
56FD
330
2
100
AcDbEntity
  8
外形線
100
AcDbLine
 10
2450.586624768555
 20
1002.606333175581
 30
0.0
 11
2453.586624768556
 21
1002.606333175581
 31
0.0
  0
LINE
  5
56FE
330
2
100
AcDbEntity
  8
外形線
100
AcDbLine
 10
2450.586624768555
 20
1445.622233175581
 30
0.0
 11
2451.586624768556
 21
1445.622233175581
 31
0.0
  0
LINE
  5
56FF
330
2
100
AcDbEntity
  8
外形線
100
AcDbLine
 10
2799.586624768556
 20
1445.622233175581
 30
0.0
 11
2800.586624768556
 21
1445.622233175581
 31
0.0
  0
ENDSEC
  0
SECTION
  2
OBJECTS
  0
DICTIONARY
  5
A
330
0
100
AcDbDictionary
281
     1
  3
ACAD_2007HEADERVARS_RT
350
5AED
  3
ACAD_CIP_PREVIOUS_PRODUCT_INFO
350
372
  3
ACAD_COLOR
350
3A
  3
ACAD_DETAILVIEWSTYLE
350
36C
  3
ACAD_GROUP
350
36
  3
ACAD_LAYOUT
350
E
  3
ACAD_MATERIAL
350
39
  3
ACAD_MLEADERSTYLE
350
280
  3
ACAD_MLINESTYLE
350
37
  3
ACAD_PLOTSETTINGS
350
38
  3
ACAD_PLOTSTYLENAME
350
9
  3
ACAD_SCALELIST
350
25E
  3
ACAD_SECTIONVIEWSTYLE
350
36A
  3
ACAD_TABLESTYLE
350
3B
  3
ACAD_VISUALSTYLE
350
24D
  3
ACDB_RECOMPOSE_DATA
350
5AEC
  3
AcDbVariableDictionary
350
E9
  0
DICTIONARY
  5
2A3
330
22
100
AcDbDictionary
280
     1
281
     1
  0
DICTIONARY
  5
16
330
15
100
AcDbDictionary
280
     1
281
     1
  3
ACAD_LAYERFILTERS
360
159
  3
ACAD_LAYERSTATES
360
327
  3
ACLYDICTIONARY
360
158
  0
DICTIONARY
  5
286
330
7
100
AcDbDictionary
280
     1
281
     1
  3
ADSK_XREC_LAYER_RECONCILED
360
287
  0
DICTIONARY
  5
288
330
31
100
AcDbDictionary
280
     1
281
     1
  3
ADSK_XREC_LAYER_RECONCILED
360
289
  0
DICTIONARY
  5
28A
330
4C
100
AcDbDictionary
280
     1
281
     1
  3
ADSK_XREC_LAYER_RECONCILED
360
28B
  0
DICTIONARY
  5
28C
330
55
100
AcDbDictionary
280
     1
281
     1
  3
ADSK_XREC_LAYER_RECONCILED
360
28D
  0
DICTIONARY
  5
28E
330
A3
100
AcDbDictionary
280
     1
281
     1
  3
ADSK_XREC_LAYER_RECONCILED
360
28F
  0
DICTIONARY
  5
290
330
44
100
AcDbDictionary
280
     1
281
     1
  3
ADSK_XREC_LAYER_RECONCILED
360
291
  0
DICTIONARY
  5
292
330
46
100
AcDbDictionary
280
     1
281
     1
  3
ADSK_XREC_LAYER_RECONCILED
360
293
  0
DICTIONARY
  5
296
330
B1
100
AcDbDictionary
280
     1
281
     1
  3
ADSK_XREC_LAYER_RECONCILED
360
297
  0
DICTIONARY
  5
298
330
3F
100
AcDbDictionary
280
     1
281
     1
  3
ADSK_XREC_LAYER_RECONCILED
360
299
  0
DICTIONARY
  5
3
330
2
100
AcDbDictionary
280
     1
281
     1
  3
ACAD_LAYOUTSELFREF
360
4
  3
ACAD_SORTENTS
360
E6
  0
DICTIONARY
  5
10
330
F
100
AcDbDictionary
280
     1
281
     1
  3
ACAD_LAYOUTSELFREF
360
11
  0
DICTIONARY
  5
5AED
102
{ACAD_REACTORS
330
A
102
}
330
A
100
AcDbDictionary
281
     1
  3
DIMLTEX1
350
5AEF
  3
DIMLTEX2
350
5AF0
  3
DIMLTYPE
350
5AEE
  0
XRECORD
  5
372
102
{ACAD_REACTORS
330
A
102
}
330
A
100
AcDbXrecord
280
     1
300
ACDLT
300
2020
300

  0
DICTIONARY
  5
3A
102
{ACAD_REACTORS
330
A
102
}
330
A
100
AcDbDictionary
281
     1
  0
DICTIONARY
  5
36C
102
{ACAD_REACTORS
330
A
102
}
330
A
100
AcDbDictionary
281
     1
  3
Imperial24
350
36D
  0
DICTIONARY
  5
36
102
{ACAD_REACTORS
330
A
102
}
330
A
100
AcDbDictionary
281
     1
  0
DICTIONARY
  5
E
102
{ACAD_REACTORS
330
A
102
}
330
A
100
AcDbDictionary
281
     1
  3
Model
350
D
  3
\U+FF9A\U+FF72\U+FF71\U+FF73\U+FF841
350
14
  0
DICTIONARY
  5
39
102
{ACAD_REACTORS
330
A
102
}
330
A
100
AcDbDictionary
281
     1
  3
ByBlock
350
23D
  3
ByLayer
350
235
  3
Global
350
245
  0
DICTIONARY
  5
280
102
{ACAD_REACTORS
330
A
102
}
330
A
100
AcDbDictionary
281
     1
  3
Standard
350
281
  0
DICTIONARY
  5
37
102
{ACAD_REACTORS
330
A
102
}
330
A
100
AcDbDictionary
281
     1
  3
STANDARD
350
3C
  0
DICTIONARY
  5
38
102
{ACAD_REACTORS
330
A
102
}
330
A
100
AcDbDictionary
281
     1
  0
ACDBDICTIONARYWDFLT
  5
9
102
{ACAD_REACTORS
330
A
102
}
330
A
100
AcDbDictionary
281
     1
  3
Normal
350
8
100
AcDbDictionaryWithDefault
340
8
  0
DICTIONARY
  5
25E
102
{ACAD_REACTORS
330
A
102
}
330
A
100
AcDbDictionary
281
     1
  3
A0
350
25F
  3
A1
350
260
  3
A2
350
261
  3
A3
350
262
  3
A4
350
263
  3
A5
350
264
  3
A6
350
265
  3
A7
350
266
  3
A8
350
267
  3
A9
350
268
  3
B0
350
269
  3
B1
350
26A
  3
B2
350
26B
  3
B3
350
26C
  3
B4
350
26D
  3
B5
350
26E
  3
B6
350
26F
  3
B7
350
270
  3
B8
350
271
  3
B9
350
272
  3
C0
350
273
  3
C1
350
274
  3
C2
350
275
  3
C3
350
276
  3
C4
350
277
  3
C5
350
278
  3
C6
350
279
  3
C7
350
27A
  3
C8
350
27B
  3
C9
350
27C
  3
D0
350
27D
  3
D1
350
27E
  3
D2
350
27F
  0
DICTIONARY
  5
36A
102
{ACAD_REACTORS
330
A
102
}
330
A
100
AcDbDictionary
281
     1
  3
Imperial24
350
36B
  0
DICTIONARY
  5
3B
102
{ACAD_REACTORS
330
A
102
}
330
A
100
AcDbDictionary
281
     1
  3
Standard
350
3D
  0
DICTIONARY
  5
24D
102
{ACAD_REACTORS
330
A
102
}
330
A
100
AcDbDictionary
281
     1
  3
2dWireframe
350
253
  3
3D Hidden
350
255
  3
3dWireframe
350
254
  3
Basic
350
252
  3
Brighten
350
259
  3
ColorChange
350
25D
  3
Conceptual
350
256
  3
Dim
350
258
  3
EdgeColorOff
350
31E
  3
Facepattern
350
25C
  3
Flat
350
24E
  3
FlatWithEdges
350
24F
  3
Gouraud
350
250
  3
GouraudWithEdges
350
251
  3
Hidden
350
316
  3
JitterOff
350
31C
  3
Linepattern
350
25B
  3
OverhangOff
350
31D
  3
Realistic
350
257
  3
Shaded
350
31B
  3
Shaded with edges
350
31A
  3
Shades of Gray
350
317
  3
Sketchy
350
318
  3
Thicken
350
25A
  3
Wireframe
350
315
  3
X-Ray
350
319
  0
XRECORD
  5
5AEC
102
{ACAD_REACTORS
330
A
102
}
330
A
100
AcDbXrecord
280
     1
 90
        1
330
3D
  0
DICTIONARY
  5
E9
102
{ACAD_REACTORS
330
A
102
}
330
A
100
AcDbDictionary
281
     1
  3
CANNOSCALE
350
2AA
  3
CMLEADERSTYLE
350
2A9
  3
CTABLESTYLE
350
EA
  3
CVIEWDETAILSTYLE
350
3BA
  3
CVIEWSECTIONSTYLE
350
3BB
  3
DIMASSOC
350
124
  3
HIDETEXT
350
123
  3
INDEXCTL
350
3BD
  3
PROJECTNAME
350
125
  3
SORTENTS
350
3BC
  3
XCLIPFRAME
350
5AEA
  0
DICTIONARY
  5
159
102
{ACAD_REACTORS
330
16
102
}
330
16
100
AcDbDictionary
281
     1
  0
DICTIONARY
  5
327
102
{ACAD_REACTORS
330
16
102
}
330
16
100
AcDbDictionary
281
     1
  0
DICTIONARY
  5
158
102
{ACAD_REACTORS
330
16
102
}
330
16
100
AcDbDictionary
281
     1
1001
ACAD
1000
<All
  0
XRECORD
  5
287
102
{ACAD_REACTORS
330
286
102
}
330
286
100
AcDbXrecord
280
     1
290
     1
  0
XRECORD
  5
289
102
{ACAD_REACTORS
330
288
102
}
330
288
100
AcDbXrecord
280
     1
290
     1
  0
XRECORD
  5
28B
102
{ACAD_REACTORS
330
28A
102
}
330
28A
100
AcDbXrecord
280
     1
290
     1
  0
XRECORD
  5
28D
102
{ACAD_REACTORS
330
28C
102
}
330
28C
100
AcDbXrecord
280
     1
290
     1
  0
XRECORD
  5
28F
102
{ACAD_REACTORS
330
28E
102
}
330
28E
100
AcDbXrecord
280
     1
290
     1
  0
XRECORD
  5
291
102
{ACAD_REACTORS
330
290
102
}
330
290
100
AcDbXrecord
280
     1
290
     1
  0
XRECORD
  5
293
102
{ACAD_REACTORS
330
292
102
}
330
292
100
AcDbXrecord
280
     1
290
     1
  0
XRECORD
  5
297
102
{ACAD_REACTORS
330
296
102
}
330
296
100
AcDbXrecord
280
     1
290
     1
  0
XRECORD
  5
299
102
{ACAD_REACTORS
330
298
102
}
330
298
100
AcDbXrecord
280
     1
290
     1
  0
XRECORD
  5
4
102
{ACAD_REACTORS
330
3
102
}
330
3
100
AcDbXrecord
280
     1
340
2
  0
SORTENTSTABLE
  5
E6
102
{ACAD_REACTORS
330
3
102
}
330
3
100
AcDbSortentsTable
330
2
  0
XRECORD
  5
11
102
{ACAD_REACTORS
330
10
102
}
330
10
100
AcDbXrecord
280
     1
340
F
  0
XRECORD
  5
5AEF
102
{ACAD_REACTORS
330
5AED
102
}
330
5AED
100
AcDbXrecord
280
     1
340
1F
  0
XRECORD
  5
5AF0
102
{ACAD_REACTORS
330
5AED
102
}
330
5AED
100
AcDbXrecord
280
     1
340
1F
  0
XRECORD
  5
5AEE
102
{ACAD_REACTORS
330
5AED
102
}
330
5AED
100
AcDbXrecord
280
     1
340
1F
  0
ACDBDETAILVIEWSTYLE
  5
36D
102
{ACAD_XDICTIONARY
360
5B28
102
}
102
{ACAD_REACTORS
330
36C
102
}
330
36C
100
AcDbModelDocViewStyle
 70
     0
  3
Imperial24
290
     0
100
AcDbDetailViewStyle
 70
     0
 71
     0
 90
        3
 71
     1
340
1B
 62
   256
 40
0.24
340
0
 62
   256
 40
0.24
300

 40
0.36
280
     3
 71
     2
340
B
 90
       25
 62
   256
 71
     3
340
1B
 62
   256
 40
0.24
 90
        1
 40
0.75
 90
        1
300
%<\AcVar ViewType \f "%tc1">% %<\AcVar ViewDetailId>%\PSCALE %<\AcVar ViewScale \f "%sn">%
 71
     4
340
B
 90
       25
 62
   256
340
B
 90
       25
 62
   256
280
     0
1001
ACAD
1000
AcRTDxfName
1000
ACDBDETAILVIEWSTYLE
1000
AcRTDxfName
1000
ACDBDETAILVIEWSTYLE
1000
AcRTDxfName
1000
ACDBDETAILVIEWSTYLE
1000
AcRTDxfName
1000
ACDBDETAILVIEWSTYLE
1000
AcRTDxfName
1000
ACDBDETAILVIEWSTYLE
1000
AcRTDxfName
1000
ACDBDETAILVIEWSTYLE
1000
AcRTDxfName
1000
ACDBDETAILVIEWSTYLE
1000
AcRTDxfName
1000
ACDBDETAILVIEWSTYLE
  0
LAYOUT
  5
D
102
{ACAD_XDICTIONARY
360
32C
102
}
102
{ACAD_REACTORS
330
E
102
}
330
E
100
AcDbPlotSettings
  1

  2
RICOH imagio Neo C380 RPCS
  4
A3
  6

 40
5.873749732971191
 41
5.873747825622557
 42
5.873748779296875
 43
5.873748779296875
 44
296.9259948730469
 45
419.9466552734373
 46
-7.66
 47
-73.84
 48
0.0
 49
0.0
140
0.0
141
0.0
142
1.0
143
50.0
 70
 11956
 72
     1
 73
     1
 74
     0
  7
monochrome.ctb
 75
    25
147
0.02
 76
     0
 77
     2
 78
   300
148
31336.08423746252
149
-20712.0924088546
100
AcDbLayout
  1
Model
 70
     1
 71
     0
 10
0.0
 20
0.0
 11
12.0
 21
9.0
 12
0.0
 22
0.0
 32
0.0
 14
0.0
 24
0.0
 34
0.0
 15
0.0
 25
0.0
 35
0.0
146
0.0
 13
0.0
 23
0.0
 33
0.0
 16
1.0
 26
0.0
 36
0.0
 17
0.0
 27
1.0
 37
0.0
 76
     0
330
2
331
22E
  0
LAYOUT
  5
14
102
{ACAD_REACTORS
330
E
102
}
330
E
100
AcDbPlotSettings
  1

  2
D:\Program Files\ACAD2000\plotters\HPDJ430.pc3
  4

  6

 40
0.0
 41
0.0
 42
0.0
 43
0.0
 44
0.0
 45
0.0
 46
0.0
 47
0.0
 48
0.0
 49
0.0
140
0.0
141
0.0
142
1.0
143
1.0
 70
   688
 72
     0
 73
     0
 74
     5
  7
monochrome.ctb
 75
    16
147
1.0
 76
     0
 77
     2
 78
   300
148
0.0
149
0.0
100
AcDbLayout
  1
\U+FF9A\U+FF72\U+FF71\U+FF73\U+FF841
 70
     1
 71
     1
 10
0.0
 20
0.0
 11
420.0
 21
297.0
 12
0.0
 22
0.0
 32
0.0
 14
1.000000000000000E+20
 24
1.000000000000000E+20
 34
1.000000000000000E+20
 15
-1.000000000000000E+20
 25
-1.000000000000000E+20
 35
-1.000000000000000E+20
146
0.0
 13
0.0
 23
0.0
 33
0.0
 16
1.0
 26
0.0
 36
0.0
 17
0.0
 27
1.0
 37
0.0
 76
     0
330
F
  0
MATERIAL
  5
23D
102
{ACAD_XDICTIONARY
360
23E
102
}
102
{ACAD_REACTORS
330
39
102
}
330
39
100
AcDbMaterial
  1
ByBlock
 72
     0
 43
0.0208333333333333
 43
0.0
 43
0.0
 43
0.0
 43
0.0
 43
0.0208333333333333
 43
0.0
 43
0.0
 43
0.0
 43
0.0
 43
1.0
 43
0.0
 43
0.0
 43
0.0
 43
0.0
 43
1.0
 77
     0
 47
0.0208333333333333
 47
0.0
 47
0.0
 47
0.0
 47
0.0
 47
0.0208333333333333
 47
0.0
 47
0.0
 47
0.0
 47
0.0
 47
1.0
 47
0.0
 47
0.0
 47
0.0
 47
0.0
 47
1.0
171
     0
 49
0.0208333333333333
 49
0.0
 49
0.0
 49
0.0
 49
0.0
 49
0.0208333333333333
 49
0.0
 49
0.0
 49
0.0
 49
0.0
 49
1.0
 49
0.0
 49
0.0
 49
0.0
 49
0.0
 49
1.0
175
     0
142
0.0208333333333333
142
0.0
142
0.0
142
0.0
142
0.0
142
0.0208333333333333
142
0.0
142
0.0
142
0.0
142
0.0
142
1.0
142
0.0
142
0.0
142
0.0
142
0.0
142
1.0
179
     0
144
0.0208333333333333
144
0.0
144
0.0
144
0.0
144
0.0
144
0.0208333333333333
144
0.0
144
0.0
144
0.0
144
0.0
144
1.0
144
0.0
144
0.0
144
0.0
144
0.0
144
1.0
147
0.0208333333333333
147
0.0
147
0.0
147
0.0
147
0.0
147
0.0208333333333333
147
0.0
147
0.0
147
0.0
147
0.0
147
1.0
147
0.0
147
0.0
147
0.0
147
0.0
147
1.0
  0
MATERIAL
  5
235
102
{ACAD_XDICTIONARY
360
236
102
}
102
{ACAD_REACTORS
330
39
102
}
330
39
100
AcDbMaterial
  1
ByLayer
 72
     0
 43
0.0208333333333333
 43
0.0
 43
0.0
 43
0.0
 43
0.0
 43
0.0208333333333333
 43
0.0
 43
0.0
 43
0.0
 43
0.0
 43
1.0
 43
0.0
 43
0.0
 43
0.0
 43
0.0
 43
1.0
 77
     0
 47
0.0208333333333333
 47
0.0
 47
0.0
 47
0.0
 47
0.0
 47
0.0208333333333333
 47
0.0
 47
0.0
 47
0.0
 47
0.0
 47
1.0
 47
0.0
 47
0.0
 47
0.0
 47
0.0
 47
1.0
171
     0
 49
0.0208333333333333
 49
0.0
 49
0.0
 49
0.0
 49
0.0
 49
0.0208333333333333
 49
0.0
 49
0.0
 49
0.0
 49
0.0
 49
1.0
 49
0.0
 49
0.0
 49
0.0
 49
0.0
 49
1.0
175
     0
142
0.0208333333333333
142
0.0
142
0.0
142
0.0
142
0.0
142
0.0208333333333333
142
0.0
142
0.0
142
0.0
142
0.0
142
1.0
142
0.0
142
0.0
142
0.0
142
0.0
142
1.0
179
     0
144
0.0208333333333333
144
0.0
144
0.0
144
0.0
144
0.0
144
0.0208333333333333
144
0.0
144
0.0
144
0.0
144
0.0
144
1.0
144
0.0
144
0.0
144
0.0
144
0.0
144
1.0
147
0.0208333333333333
147
0.0
147
0.0
147
0.0
147
0.0
147
0.0208333333333333
147
0.0
147
0.0
147
0.0
147
0.0
147
1.0
147
0.0
147
0.0
147
0.0
147
0.0
147
1.0
  0
MATERIAL
  5
245
102
{ACAD_XDICTIONARY
360
246
102
}
102
{ACAD_REACTORS
330
39
102
}
330
39
100
AcDbMaterial
  1
Global
 72
     0
 43
0.0208333333333333
 43
0.0
 43
0.0
 43
0.0
 43
0.0
 43
0.0208333333333333
 43
0.0
 43
0.0
 43
0.0
 43
0.0
 43
1.0
 43
0.0
 43
0.0
 43
0.0
 43
0.0
 43
1.0
 77
     0
 47
0.0208333333333333
 47
0.0
 47
0.0
 47
0.0
 47
0.0
 47
0.0208333333333333
 47
0.0
 47
0.0
 47
0.0
 47
0.0
 47
1.0
 47
0.0
 47
0.0
 47
0.0
 47
0.0
 47
1.0
171
     0
 49
0.0208333333333333
 49
0.0
 49
0.0
 49
0.0
 49
0.0
 49
0.0208333333333333
 49
0.0
 49
0.0
 49
0.0
 49
0.0
 49
1.0
 49
0.0
 49
0.0
 49
0.0
 49
0.0
 49
1.0
175
     0
142
0.0208333333333333
142
0.0
142
0.0
142
0.0
142
0.0
142
0.0208333333333333
142
0.0
142
0.0
142
0.0
142
0.0
142
1.0
142
0.0
142
0.0
142
0.0
142
0.0
142
1.0
179
     0
144
0.0208333333333333
144
0.0
144
0.0
144
0.0
144
0.0
144
0.0208333333333333
144
0.0
144
0.0
144
0.0
144
0.0
144
1.0
144
0.0
144
0.0
144
0.0
144
0.0
144
1.0
147
0.0208333333333333
147
0.0
147
0.0
147
0.0
147
0.0
147
0.0208333333333333
147
0.0
147
0.0
147
0.0
147
0.0
147
1.0
147
0.0
147
0.0
147
0.0
147
0.0
147
1.0
  0
MLEADERSTYLE
  5
281
102
{ACAD_REACTORS
330
280
330
2614
330
2617
330
262A
330
2631
102
}
330
280
100
AcDbMLeaderStyle
170
     2
171
     1
172
     0
 90
        2
 40
0.0
 41
0.0
173
     1
 91
-1056964608
340
1E
 92
       -2
290
     1
 42
0.09
291
     1
 43
0.36
  3
Standard
 44
0.18
300

342
1B
174
     1
178
     6
175
     1
176
     0
 93
-1056964608
 45
0.18
292
     0
297
     0
 46
0.18
 94
-1056964608
 47
1.0
 49
1.0
140
1.0
293
     1
141
0.0
294
     1
177
     0
142
1.0
295
     0
296
     0
143
0.125
1001
ACAD_MLEADERVER
1070
     2
  0
MLINESTYLE
  5
3C
102
{ACAD_REACTORS
330
37
102
}
330
37
100
AcDbMlineStyle
  2
STANDARD
 70
     0
  3

 62
     0
 51
90.0
 52
90.0
 71
     2
 49
0.5
 62
   256
  6
BYLAYER
 49
-0.5
 62
   256
  6
BYLAYER
  0
ACDBPLACEHOLDER
  5
8
102
{ACAD_REACTORS
330
9
102
}
330
9
  0
SCALE
  5
25F
102
{ACAD_REACTORS
330
25E
102
}
330
25E
100
AcDbScale
 70
     0
300
1:1
140
1.0
141
1.0
290
     1
  0
SCALE
  5
260
102
{ACAD_REACTORS
330
25E
102
}
330
25E
100
AcDbScale
 70
     0
300
1:2
140
1.0
141
2.0
290
     0
  0
SCALE
  5
261
102
{ACAD_REACTORS
330
25E
102
}
330
25E
100
AcDbScale
 70
     0
300
1:4
140
1.0
141
4.0
290
     0
  0
SCALE
  5
262
102
{ACAD_REACTORS
330
25E
102
}
330
25E
100
AcDbScale
 70
     0
300
1:5
140
1.0
141
5.0
290
     0
  0
SCALE
  5
263
102
{ACAD_REACTORS
330
25E
102
}
330
25E
100
AcDbScale
 70
     0
300
1:8
140
1.0
141
8.0
290
     0
  0
SCALE
  5
264
102
{ACAD_REACTORS
330
25E
102
}
330
25E
100
AcDbScale
 70
     0
300
1:10
140
1.0
141
10.0
290
     0
  0
SCALE
  5
265
102
{ACAD_REACTORS
330
25E
102
}
330
25E
100
AcDbScale
 70
     0
300
1:16
140
1.0
141
16.0
290
     0
  0
SCALE
  5
266
102
{ACAD_REACTORS
330
25E
102
}
330
25E
100
AcDbScale
 70
     0
300
1:20
140
1.0
141
20.0
290
     0
  0
SCALE
  5
267
102
{ACAD_REACTORS
330
25E
102
}
330
25E
100
AcDbScale
 70
     0
300
1:30
140
1.0
141
30.0
290
     0
  0
SCALE
  5
268
102
{ACAD_REACTORS
330
25E
102
}
330
25E
100
AcDbScale
 70
     0
300
1:40
140
1.0
141
40.0
290
     0
  0
SCALE
  5
269
102
{ACAD_REACTORS
330
25E
102
}
330
25E
100
AcDbScale
 70
     0
300
1:50
140
1.0
141
50.0
290
     0
  0
SCALE
  5
26A
102
{ACAD_REACTORS
330
25E
102
}
330
25E
100
AcDbScale
 70
     0
300
1:100
140
1.0
141
100.0
290
     0
  0
SCALE
  5
26B
102
{ACAD_REACTORS
330
25E
102
}
330
25E
100
AcDbScale
 70
     0
300
2:1
140
2.0
141
1.0
290
     0
  0
SCALE
  5
26C
102
{ACAD_REACTORS
330
25E
102
}
330
25E
100
AcDbScale
 70
     0
300
4:1
140
4.0
141
1.0
290
     0
  0
SCALE
  5
26D
102
{ACAD_REACTORS
330
25E
102
}
330
25E
100
AcDbScale
 70
     0
300
8:1
140
8.0
141
1.0
290
     0
  0
SCALE
  5
26E
102
{ACAD_REACTORS
330
25E
102
}
330
25E
100
AcDbScale
 70
     0
300
10:1
140
10.0
141
1.0
290
     0
  0
SCALE
  5
26F
102
{ACAD_REACTORS
330
25E
102
}
330
25E
100
AcDbScale
 70
     0
300
100:1
140
100.0
141
1.0
290
     0
  0
SCALE
  5
270
102
{ACAD_REACTORS
330
25E
102
}
330
25E
100
AcDbScale
 70
     0
300
1/128" = 1'-0"
140
0.0078125
141
12.0
290
     0
  0
SCALE
  5
271
102
{ACAD_REACTORS
330
25E
102
}
330
25E
100
AcDbScale
 70
     0
300
1/64" = 1'-0"
140
0.015625
141
12.0
290
     0
  0
SCALE
  5
272
102
{ACAD_REACTORS
330
25E
102
}
330
25E
100
AcDbScale
 70
     0
300
1/32" = 1'-0"
140
0.03125
141
12.0
290
     0
  0
SCALE
  5
273
102
{ACAD_REACTORS
330
25E
102
}
330
25E
100
AcDbScale
 70
     0
300
1/16" = 1'-0"
140
0.0625
141
12.0
290
     0
  0
SCALE
  5
274
102
{ACAD_REACTORS
330
25E
102
}
330
25E
100
AcDbScale
 70
     0
300
3/32" = 1'-0"
140
0.09375
141
12.0
290
     0
  0
SCALE
  5
275
102
{ACAD_REACTORS
330
25E
102
}
330
25E
100
AcDbScale
 70
     0
300
1/8" = 1'-0"
140
0.125
141
12.0
290
     0
  0
SCALE
  5
276
102
{ACAD_REACTORS
330
25E
102
}
330
25E
100
AcDbScale
 70
     0
300
3/16" = 1'-0"
140
0.1875
141
12.0
290
     0
  0
SCALE
  5
277
102
{ACAD_REACTORS
330
25E
102
}
330
25E
100
AcDbScale
 70
     0
300
1/4" = 1'-0"
140
0.25
141
12.0
290
     0
  0
SCALE
  5
278
102
{ACAD_REACTORS
330
25E
102
}
330
25E
100
AcDbScale
 70
     0
300
3/8" = 1'-0"
140
0.375
141
12.0
290
     0
  0
SCALE
  5
279
102
{ACAD_REACTORS
330
25E
102
}
330
25E
100
AcDbScale
 70
     0
300
1/2" = 1'-0"
140
0.5
141
12.0
290
     0
  0
SCALE
  5
27A
102
{ACAD_REACTORS
330
25E
102
}
330
25E
100
AcDbScale
 70
     0
300
3/4" = 1'-0"
140
0.75
141
12.0
290
     0
  0
SCALE
  5
27B
102
{ACAD_REACTORS
330
25E
102
}
330
25E
100
AcDbScale
 70
     0
300
1" = 1'-0"
140
1.0
141
12.0
290
     0
  0
SCALE
  5
27C
102
{ACAD_REACTORS
330
25E
102
}
330
25E
100
AcDbScale
 70
     0
300
1-1/2" = 1'-0"
140
1.5
141
12.0
290
     0
  0
SCALE
  5
27D
102
{ACAD_REACTORS
330
25E
102
}
330
25E
100
AcDbScale
 70
     0
300
3" = 1'-0"
140
3.0
141
12.0
290
     0
  0
SCALE
  5
27E
102
{ACAD_REACTORS
330
25E
102
}
330
25E
100
AcDbScale
 70
     0
300
6" = 1'-0"
140
6.0
141
12.0
290
     0
  0
SCALE
  5
27F
102
{ACAD_REACTORS
330
25E
102
}
330
25E
100
AcDbScale
 70
     0
300
1'-0" = 1'-0"
140
12.0
141
12.0
290
     0
  0
ACDBSECTIONVIEWSTYLE
  5
36B
102
{ACAD_XDICTIONARY
360
5B26
102
}
102
{ACAD_REACTORS
330
36A
102
}
330
36A
100
AcDbModelDocViewStyle
 70
     0
  3
Imperial24
290
     0
100
AcDbSectionViewStyle
 70
     0
 71
     0
 90
       78
 71
     1
340
1B
 62
   256
 40
0.24
340
0
340
0
 62
   256
 40
0.24
300
I, O, Q, S, X, Z
 40
0.48
 90
        3
 40
0.18
 90
        1
 71
     2
340
B
 90
       25
 62
   256
340
B
 90
       50
 62
   256
 40
0.24
 40
0.0
 40
0.24
 71
     3
340
1B
 62
   256
 40
0.24
 90
        1
 40
0.75
 90
        1
300
%<\AcVar ViewType \f "%tc1">% %<\AcVar ViewSectionStartId>%-%<\AcVar ViewSectionEndId>%\PSCALE %<\AcVar ViewScale \f "%sn">%
 71
     4
 62
   256
 62
   257
300
ANSI31
 40
1.0
 90
        0
290
     0
290
     0
 90
        6
 40
0.0
 40
1.570796326794896
 40
0.2617993877991494
 40
1.308996938995747
 40
-0.2617993877991494
 40
1.832595714594045
1001
ACAD
1000
AcRTDxfName
1000
ACDBSECTIONVIEWSTYLE
1000
AcRTDxfName
1000
ACDBSECTIONVIEWSTYLE
1000
AcRTDxfName
1000
ACDBSECTIONVIEWSTYLE
1000
AcRTDxfName
1000
ACDBSECTIONVIEWSTYLE
1000
AcRTDxfName
1000
ACDBSECTIONVIEWSTYLE
1000
AcRTDxfName
1000
ACDBSECTIONVIEWSTYLE
1000
AcRTDxfName
1000
ACDBSECTIONVIEWSTYLE
1000
AcRTDxfName
1000
ACDBSECTIONVIEWSTYLE
  0
TABLESTYLE
  5
3D
102
{ACAD_XDICTIONARY
360
2A0
102
}
102
{ACAD_REACTORS
330
3B
102
}
330
3B
100
AcDbTableStyle
  3
Standard
 70
     0
 71
     0
 40
0.06
 41
0.06
280
     0
281
     0
  7
STANDARD
140
0.18
170
     2
 62
     0
 63
     7
283
     0
274
    -2
284
     1
 64
     0
275
    -2
285
     1
 65
     0
276
    -2
286
     1
 66
     0
277
    -2
287
     1
 67
     0
278
    -2
288
     1
 68
     0
279
    -2
289
     1
 69
     0
  7
STANDARD
140
0.25
170
     5
 62
     0
 63
     7
283
     0
274
    -2
284
     1
 64
     0
275
    -2
285
     1
 65
     0
276
    -2
286
     1
 66
     0
277
    -2
287
     1
 67
     0
278
    -2
288
     1
 68
     0
279
    -2
289
     1
 69
     0
  7
STANDARD
140
0.18
170
     5
 62
     0
 63
     7
283
     0
274
    -2
284
     1
 64
     0
275
    -2
285
     1
 65
     0
276
    -2
286
     1
 66
     0
277
    -2
287
     1
 67
     0
278
    -2
288
     1
 68
     0
279
    -2
289
     1
 69
     0
  0
VISUALSTYLE
  5
253
102
{ACAD_XDICTIONARY
360
5AFC
102
}
102
{ACAD_REACTORS
330
24D
102
}
330
24D
100
AcDbVisualStyle
  2

 70
     4
 71
     0
 72
     2
 73
     0
 90
        0
 40
-0.6
 41
-30.0
 62
     5
 63
     7
 74
     1
 91
        4
 64
     7
 65
   257
 75
     1
175
     1
 42
1.0
 92
        0
 66
   257
 43
1.0
 76
     1
 77
     6
 78
     2
 67
     7
 79
     5
170
     0
171
     0
290
     0
174
     0
 93
        1
 44
0.0
173
     0
291
     0
 45
0.0
1001
ACAD
1000
AcDbSavedByObjectVersion
1070
     0
  0
VISUALSTYLE
  5
255
102
{ACAD_XDICTIONARY
360
5B00
102
}
102
{ACAD_REACTORS
330
24D
102
}
330
24D
100
AcDbVisualStyle
  2

 70
     6
 71
     1
 72
     2
 73
     2
 90
        0
 40
-0.6
 41
-30.0
 62
     5
 63
     7
 74
     2
 91
        2
 64
     7
 65
   257
 75
     2
175
     1
 42
40.0
 92
        0
 66
   257
 43
1.0
 76
     1
 77
     6
 78
     2
 67
     7
 79
     3
170
     0
171
     0
290
     0
174
     0
 93
        1
 44
0.0
173
     0
291
     0
 45
0.0
1001
ACAD
1000
AcDbSavedByObjectVersion
1070
     0
  0
VISUALSTYLE
  5
254
102
{ACAD_XDICTIONARY
360
5AFE
102
}
102
{ACAD_REACTORS
330
24D
102
}
330
24D
100
AcDbVisualStyle
  2

 70
     5
 71
     0
 72
     2
 73
     0
 90
        0
 40
-0.6
 41
-30.0
 62
     5
 63
     7
 74
     1
 91
        4
 64
     7
 65
   257
 75
     1
175
     1
 42
1.0
 92
        0
 66
   257
 43
1.0
 76
     1
 77
     6
 78
     2
 67
     7
 79
     5
170
     0
171
     0
290
     0
174
     0
 93
        1
 44
0.0
173
     0
291
     0
 45
0.0
1001
ACAD
1000
AcDbSavedByObjectVersion
1070
     0
  0
VISUALSTYLE
  5
252
102
{ACAD_XDICTIONARY
360
5AFA
102
}
102
{ACAD_REACTORS
330
24D
102
}
330
24D
100
AcDbVisualStyle
  2

 70
     7
 71
     1
 72
     0
 73
     1
 90
        0
 40
-0.6
 41
-30.0
 62
     5
 63
     7
 74
     0
 91
        4
 64
     7
 65
   257
 75
     1
175
     1
 42
1.0
 92
        8
 66
     7
 43
1.0
 76
     1
 77
     6
 78
     2
 67
     7
 79
     5
170
     0
171
     0
290
     0
174
     0
 93
        1
 44
0.0
173
     0
291
     1
 45
0.0
1001
ACAD
1000
AcDbSavedByObjectVersion
1070
     0
  0
VISUALSTYLE
  5
259
102
{ACAD_XDICTIONARY
360
5B08
102
}
102
{ACAD_REACTORS
330
24D
102
}
330
24D
100
AcDbVisualStyle
  2

 70
    12
 71
     2
 72
     2
 73
     0
 90
        0
 40
-0.6
 41
-30.0
 62
     5
 63
     7
 74
     1
 91
        4
 64
     7
 65
   257
 75
     1
175
     1
 42
1.0
 92
        8
 66
     7
 43
1.0
 76
     1
 77
     6
 78
     2
 67
     7
 79
     5
170
     0
171
     0
290
     0
174
     0
 93
        1
 44
50.0
173
     0
291
     1
 45
0.0
1001
ACAD
1000
AcDbSavedByObjectVersion
1070
     0
  0
VISUALSTYLE
  5
25D
102
{ACAD_XDICTIONARY
360
5B10
102
}
102
{ACAD_REACTORS
330
24D
102
}
330
24D
100
AcDbVisualStyle
  2

 70
    16
 71
     2
 72
     2
 73
     3
 90
        0
 40
-0.6
 41
-30.0
 62
     5
 63
     8
 74
     1
 91
        4
 64
     7
 65
   257
 75
     1
175
     1
 42
1.0
 92
        8
 66
     8
 43
1.0
 76
     1
 77
     6
 78
     2
 67
     7
 79
     5
170
     0
171
     0
290
     0
174
     0
 93
        1
 44
0.0
173
     0
291
     1
 45
0.0
1001
ACAD
1000
AcDbSavedByObjectVersion
1070
     0
  0
VISUALSTYLE
  5
256
102
{ACAD_XDICTIONARY
360
5B02
102
}
102
{ACAD_REACTORS
330
24D
102
}
330
24D
100
AcDbVisualStyle
  2

 70
     9
 71
     3
 72
     2
 73
     0
 90
        0
 40
-0.6
 41
-30.0
 62
     5
 63
     7
 74
     2
 91
        2
 64
     7
 65
   257
 75
     1
175
     1
 42
40.0
 92
        8
 66
     7
 43
1.0
 76
     1
 77
     6
 78
     2
 67
     7
 79
     3
170
     0
171
     0
290
     0
174
     0
 93
        1
 44
0.0
173
     0
291
     0
 45
0.0
1001
ACAD
1000
AcDbSavedByObjectVersion
1070
     0
  0
VISUALSTYLE
  5
258
102
{ACAD_XDICTIONARY
360
5B06
102
}
102
{ACAD_REACTORS
330
24D
102
}
330
24D
100
AcDbVisualStyle
  2

 70
    11
 71
     2
 72
     2
 73
     0
 90
        0
 40
-0.6
 41
-30.0
 62
     5
 63
     7
 74
     1
 91
        4
 64
     7
 65
   257
 75
     1
175
     1
 42
1.0
 92
        8
 66
     7
 43
1.0
 76
     1
 77
     6
 78
     2
 67
     7
 79
     5
170
     0
171
     0
290
     0
174
     0
 93
        1
 44
-50.0
173
     0
291
     1
 45
0.0
1001
ACAD
1000
AcDbSavedByObjectVersion
1070
     0
  0
VISUALSTYLE
  5
31E
102
{ACAD_XDICTIONARY
360
5B24
102
}
102
{ACAD_REACTORS
330
24D
102
}
330
24D
100
AcDbVisualStyle
  2

 70
    22
 71
     2
 72
     2
 73
     0
 90
        0
 40
-0.6
 41
-30.0
 62
     5
 63
     7
 74
     1
 91
        4
 64
     7
 65
   257
 75
     1
175
     1
 42
1.0
 92
        8
 66
     7
 43
1.0
 76
     1
 77
     6
 78
     2
 67
     7
 79
     5
170
     0
171
     0
290
     0
174
     0
 93
        1
 44
0.0
173
     0
291
     1
 45
0.0
1001
ACAD
1000
AcDbSavedByObjectVersion
1070
     0
  0
VISUALSTYLE
  5
25C
102
{ACAD_XDICTIONARY
360
5B0E
102
}
102
{ACAD_REACTORS
330
24D
102
}
330
24D
100
AcDbVisualStyle
  2

 70
    15
 71
     2
 72
     2
 73
     0
 90
        0
 40
-0.6
 41
-30.0
 62
     5
 63
     7
 74
     1
 91
        4
 64
     7
 65
   257
 75
     1
175
     1
 42
1.0
 92
        8
 66
     7
 43
1.0
 76
     1
 77
     6
 78
     2
 67
     7
 79
     5
170
     0
171
     0
290
     0
174
     0
 93
        1
 44
0.0
173
     0
291
     1
 45
0.0
1001
ACAD
1000
AcDbSavedByObjectVersion
1070
     0
  0
VISUALSTYLE
  5
24E
102
{ACAD_XDICTIONARY
360
5AF2
102
}
102
{ACAD_REACTORS
330
24D
102
}
330
24D
100
AcDbVisualStyle
  2

 70
     0
 71
     2
 72
     1
 73
     1
 90
        2
 40
-0.6
 41
30.0
 62
     5
 63
     7
 74
     0
 91
        4
 64
     7
 65
   257
 75
     1
175
     1
 42
1.0
 92
        8
 66
     7
 43
1.0
 76
     1
 77
     6
 78
     2
 67
     7
 79
     5
170
     0
171
     0
290
     0
174
     0
 93
       13
 44
0.0
173
     0
291
     1
 45
0.0
1001
ACAD
1000
AcDbSavedByObjectVersion
1070
     0
  0
VISUALSTYLE
  5
24F
102
{ACAD_XDICTIONARY
360
5AF4
102
}
102
{ACAD_REACTORS
330
24D
102
}
330
24D
100
AcDbVisualStyle
  2

 70
     1
 71
     2
 72
     1
 73
     1
 90
        2
 40
-0.6
 41
30.0
 62
     5
 63
     7
 74
     1
 91
        4
 64
     7
 65
   257
 75
     1
175
     1
 42
1.0
 92
        0
 66
   257
 43
1.0
 76
     1
 77
     6
 78
     2
 67
     7
 79
     5
170
     0
171
     0
290
     0
174
     0
 93
       13
 44
0.0
173
     0
291
     1
 45
0.0
1001
ACAD
1000
AcDbSavedByObjectVersion
1070
     0
  0
VISUALSTYLE
  5
250
102
{ACAD_XDICTIONARY
360
5AF6
102
}
102
{ACAD_REACTORS
330
24D
102
}
330
24D
100
AcDbVisualStyle
  2

 70
     2
 71
     2
 72
     2
 73
     1
 90
        2
 40
-0.6
 41
30.0
 62
     5
 63
     7
 74
     0
 91
        4
 64
     7
 65
   257
 75
     1
175
     1
 42
1.0
 92
        0
 66
     7
 43
1.0
 76
     1
 77
     6
 78
     2
 67
     7
 79
     5
170
     0
171
     0
290
     0
174
     0
 93
       13
 44
0.0
173
     0
291
     1
 45
0.0
1001
ACAD
1000
AcDbSavedByObjectVersion
1070
     0
  0
VISUALSTYLE
  5
251
102
{ACAD_XDICTIONARY
360
5AF8
102
}
102
{ACAD_REACTORS
330
24D
102
}
330
24D
100
AcDbVisualStyle
  2

 70
     3
 71
     2
 72
     2
 73
     1
 90
        2
 40
-0.6
 41
30.0
 62
     5
 63
     7
 74
     1
 91
        4
 64
     7
 65
   257
 75
     1
175
     1
 42
1.0
 92
        0
 66
   257
 43
1.0
 76
     1
 77
     6
 78
     2
 67
     7
 79
     5
170
     0
171
     0
290
     0
174
     0
 93
       13
 44
0.0
173
     0
291
     1
 45
0.0
1001
ACAD
1000
AcDbSavedByObjectVersion
1070
     0
  0
VISUALSTYLE
  5
316
102
{ACAD_XDICTIONARY
360
5B14
102
}
102
{ACAD_REACTORS
330
24D
102
}
330
24D
100
AcDbVisualStyle
  2

 70
     6
 71
     1
 72
     2
 73
     2
 90
        0
 40
-0.6
 41
-30.0
 62
     5
 63
     7
 74
     2
 91
        2
 64
     7
 65
   257
 75
     2
175
     1
 42
40.0
 92
        0
 66
   257
 43
1.0
 76
     1
 77
     6
 78
     2
 67
     7
 79
     3
170
     0
171
     0
290
     0
174
     0
 93
        1
 44
0.0
173
     0
291
     0
 45
0.0
1001
ACAD
1000
AcDbSavedByObjectVersion
1070
     0
  0
VISUALSTYLE
  5
31C
102
{ACAD_XDICTIONARY
360
5B20
102
}
102
{ACAD_REACTORS
330
24D
102
}
330
24D
100
AcDbVisualStyle
  2

 70
    20
 71
     2
 72
     2
 73
     0
 90
        0
 40
-0.6
 41
-30.0
 62
     5
 63
     7
 74
     1
 91
        4
 64
     7
 65
   257
 75
     1
175
     1
 42
1.0
 92
       10
 66
     7
 43
1.0
 76
     1
 77
     6
 78
     2
 67
     7
 79
     5
170
     0
171
     0
290
     0
174
     0
 93
        1
 44
0.0
173
     0
291
     1
 45
0.0
1001
ACAD
1000
AcDbSavedByObjectVersion
1070
     0
  0
VISUALSTYLE
  5
25B
102
{ACAD_XDICTIONARY
360
5B0C
102
}
102
{ACAD_REACTORS
330
24D
102
}
330
24D
100
AcDbVisualStyle
  2

 70
    14
 71
     2
 72
     2
 73
     0
 90
        0
 40
-0.6
 41
-30.0
 62
     5
 63
     7
 74
     1
 91
        4
 64
     7
 65
   257
 75
     7
175
     7
 42
1.0
 92
        8
 66
     7
 43
1.0
 76
     1
 77
     6
 78
     2
 67
     7
 79
     5
170
     0
171
     0
290
     0
174
     0
 93
        1
 44
0.0
173
     0
291
     1
 45
0.0
1001
ACAD
1000
AcDbSavedByObjectVersion
1070
     0
  0
VISUALSTYLE
  5
31D
102
{ACAD_XDICTIONARY
360
5B22
102
}
102
{ACAD_REACTORS
330
24D
102
}
330
24D
100
AcDbVisualStyle
  2

 70
    21
 71
     2
 72
     2
 73
     0
 90
        0
 40
-0.6
 41
-30.0
 62
     5
 63
     7
 74
     1
 91
        4
 64
     7
 65
   257
 75
     1
175
     1
 42
1.0
 92
        9
 66
     7
 43
1.0
 76
     1
 77
     6
 78
     2
 67
     7
 79
     5
170
     0
171
     0
290
     0
174
     0
 93
        1
 44
0.0
173
     0
291
     1
 45
0.0
1001
ACAD
1000
AcDbSavedByObjectVersion
1070
     0
  0
VISUALSTYLE
  5
257
102
{ACAD_XDICTIONARY
360
5B04
102
}
102
{ACAD_REACTORS
330
24D
102
}
330
24D
100
AcDbVisualStyle
  2

 70
     8
 71
     2
 72
     2
 73
     0
 90
        0
 40
-0.6
 41
-30.0
 62
     5
 63
     7
 74
     1
 91
        0
 64
     7
 65
   257
 75
     1
175
     1
 42
1.0
 92
        8
 66
     8
 43
1.0
 76
     1
 77
     6
 78
     2
 67
     7
 79
     5
170
     0
171
     0
290
     0
174
     0
 93
       13
 44
0.0
173
     0
291
     0
 45
0.0
1001
ACAD
1000
AcDbSavedByObjectVersion
1070
     0
  0
VISUALSTYLE
  5
31B
102
{ACAD_XDICTIONARY
360
5B1E
102
}
102
{ACAD_REACTORS
330
24D
102
}
330
24D
100
AcDbVisualStyle
  2

 70
    27
 71
     2
 72
     2
 73
     1
 90
        2
 40
-0.6
 41
30.0
 62
     5
 63
     7
 74
     0
 91
        4
 64
     7
 65
   257
 75
     1
175
     1
 42
1.0
 92
        8
 66
   257
 43
1.0
 76
     1
 77
     6
 78
     2
 67
     8
 79
     3
170
     0
171
     0
290
     0
174
     0
 93
        5
 44
0.0
173
     0
291
     0
 45
0.0
1001
ACAD
1000
AcDbSavedByObjectVersion
1070
     0
  0
VISUALSTYLE
  5
31A
102
{ACAD_XDICTIONARY
360
5B1C
102
}
102
{ACAD_REACTORS
330
24D
102
}
330
24D
100
AcDbVisualStyle
  2

 70
    26
 71
     2
 72
     2
 73
     1
 90
        2
 40
-0.6
 41
30.0
 62
     5
 63
     7
 74
     1
 91
        2
 64
     7
 65
   257
 75
     2
175
     1
 42
1.0
 92
        8
 66
   257
 43
1.0
 76
     1
 77
     6
 78
     2
 67
     7
 79
     3
170
     0
171
     0
290
     0
174
     0
 93
        5
 44
0.0
173
     0
291
     0
 45
0.0
1001
ACAD
1000
AcDbSavedByObjectVersion
1070
     0
  0
VISUALSTYLE
  5
317
102
{ACAD_XDICTIONARY
360
5B16
102
}
102
{ACAD_REACTORS
330
24D
102
}
330
24D
100
AcDbVisualStyle
  2

 70
    23
 71
     2
 72
     2
 73
     3
 90
        0
 40
-0.6
 41
-30.0
 62
     5
 63
     7
 74
     2
 91
        2
 64
     7
 65
     7
 75
     1
175
     1
 42
40.0
 92
        8
 66
     7
 43
1.0
 76
     1
 77
     6
 78
     2
 67
     7
 79
     3
170
     0
171
     0
290
     0
174
     0
 93
        1
 44
0.0
173
     0
291
     0
 45
0.0
1001
ACAD
1000
AcDbSavedByObjectVersion
1070
     0
  0
VISUALSTYLE
  5
318
102
{ACAD_XDICTIONARY
360
5B18
102
}
102
{ACAD_REACTORS
330
24D
102
}
330
24D
100
AcDbVisualStyle
  2

 70
    24
 71
     1
 72
     2
 73
     2
 90
        0
 40
-0.6
 41
-30.0
 62
     5
 63
     7
 74
     2
 91
        2
 64
     7
 65
     7
 75
     1
175
     1
 42
40.0
 92
       11
 66
     7
 43
1.0
 76
     1
 77
     6
 78
     2
 67
     7
 79
     6
170
     0
171
     0
290
     0
174
     0
 93
        1
 44
0.0
173
     0
291
     0
 45
0.0
1001
ACAD
1000
AcDbSavedByObjectVersion
1070
     0
  0
VISUALSTYLE
  5
25A
102
{ACAD_XDICTIONARY
360
5B0A
102
}
102
{ACAD_REACTORS
330
24D
102
}
330
24D
100
AcDbVisualStyle
  2

 70
    13
 71
     2
 72
     2
 73
     0
 90
        0
 40
-0.6
 41
-30.0
 62
     5
 63
     7
 74
     1
 91
        4
 64
     7
 65
   257
 75
     1
175
     1
 42
1.0
 92
       12
 66
     7
 43
1.0
 76
     1
 77
     6
 78
     2
 67
     7
 79
     5
170
     0
171
     0
290
     0
174
     0
 93
        1
 44
0.0
173
     0
291
     1
 45
0.0
1001
ACAD
1000
AcDbSavedByObjectVersion
1070
     0
  0
VISUALSTYLE
  5
315
102
{ACAD_XDICTIONARY
360
5B12
102
}
102
{ACAD_REACTORS
330
24D
102
}
330
24D
100
AcDbVisualStyle
  2

 70
     5
 71
     0
 72
     2
 73
     0
 90
        0
 40
-0.6
 41
-30.0
 62
     5
 63
     7
 74
     1
 91
        4
 64
     7
 65
   257
 75
     1
175
     1
 42
1.0
 92
        0
 66
   257
 43
1.0
 76
     1
 77
     6
 78
     2
 67
     7
 79
     3
170
     0
171
     0
290
     0
174
     0
 93
        1
 44
0.0
173
     0
291
     0
 45
0.0
1001
ACAD
1000
AcDbSavedByObjectVersion
1070
     0
  0
VISUALSTYLE
  5
319
102
{ACAD_XDICTIONARY
360
5B1A
102
}
102
{ACAD_REACTORS
330
24D
102
}
330
24D
100
AcDbVisualStyle
  2

 70
    25
 71
     2
 72
     2
 73
     1
 90
        1
 40
0.5
 41
-30.0
 62
     5
 63
     7
 74
     1
 91
        0
 64
     7
 65
   257
 75
     1
175
     1
 42
1.0
 92
        8
 66
     7
 43
1.0
 76
     1
 77
     6
 78
     2
 67
     7
 79
     3
170
     0
171
     0
290
     0
174
     0
 93
       13
 44
0.0
173
     0
291
     0
 45
0.0
1001
ACAD
1000
AcDbSavedByObjectVersion
1070
     0
  0
DICTIONARYVAR
  5
2AA
102
{ACAD_REACTORS
330
E9
102
}
330
E9
100
DictionaryVariables
280
     0
  1
1:1
  0
DICTIONARYVAR
  5
2A9
102
{ACAD_REACTORS
330
E9
102
}
330
E9
100
DictionaryVariables
280
     0
  1
STANDARD
  0
DICTIONARYVAR
  5
EA
102
{ACAD_REACTORS
330
E9
102
}
330
E9
100
DictionaryVariables
280
     0
  1
STANDARD
  0
DICTIONARYVAR
  5
3BA
102
{ACAD_REACTORS
330
E9
102
}
330
E9
100
DictionaryVariables
280
     0
  1
Imperial24
  0
DICTIONARYVAR
  5
3BB
102
{ACAD_REACTORS
330
E9
102
}
330
E9
100
DictionaryVariables
280
     0
  1
Imperial24
  0
DICTIONARYVAR
  5
124
102
{ACAD_REACTORS
330
E9
102
}
330
E9
100
DictionaryVariables
280
     0
  1
1
  0
DICTIONARYVAR
  5
123
102
{ACAD_REACTORS
330
E9
102
}
330
E9
100
DictionaryVariables
280
     0
  1
1
  0
DICTIONARYVAR
  5
3BD
102
{ACAD_REACTORS
330
E9
102
}
330
E9
100
DictionaryVariables
280
     0
  1
0
  0
DICTIONARYVAR
  5
125
102
{ACAD_REACTORS
330
E9
102
}
330
E9
100
DictionaryVariables
280
     0
  1

  0
DICTIONARYVAR
  5
3BC
102
{ACAD_REACTORS
330
E9
102
}
330
E9
100
DictionaryVariables
280
     0
  1
127
  0
DICTIONARYVAR
  5
5AEA
102
{ACAD_REACTORS
330
E9
102
}
330
E9
100
DictionaryVariables
280
     0
  1
2
  0
DICTIONARY
  5
5B28
330
36D
100
AcDbDictionary
280
     1
281
     1
  3
ACAD_XREC_ROUNDTRIP
360
5B29
  0
DICTIONARY
  5
32C
330
D
100
AcDbDictionary
280
     1
281
     1
  3
ADSK_XREC_LAYOUTTHUMBNAIL
360
32D
  0
DICTIONARY
  5
23E
330
23D
100
AcDbDictionary
280
     1
281
     1
  3
ACAD_XREC_ROUNDTRIP
360
59AB
  3
BUMPTILE
360
240
  3
DIFFUSETILE
360
23F
  3
OPACITYTILE
360
243
  3
REFLECTIONTILE
360
242
  3
REFRACTIONTILE
360
244
  3
SPECULARTILE
360
241
  0
DICTIONARY
  5
236
330
235
100
AcDbDictionary
280
     1
281
     1
  3
ACAD_XREC_ROUNDTRIP
360
59AA
  3
BUMPTILE
360
238
  3
DIFFUSETILE
360
237
  3
OPACITYTILE
360
23B
  3
REFLECTIONTILE
360
23A
  3
REFRACTIONTILE
360
23C
  3
SPECULARTILE
360
239
  0
DICTIONARY
  5
246
330
245
100
AcDbDictionary
280
     1
281
     1
  3
ACAD_XREC_ROUNDTRIP
360
59AC
  3
BUMPTILE
360
248
  3
DIFFUSETILE
360
247
  3
OPACITYTILE
360
24B
  3
REFLECTIONTILE
360
24A
  3
REFRACTIONTILE
360
24C
  3
SPECULARTILE
360
249
  0
DICTIONARY
  5
5B26
330
36B
100
AcDbDictionary
280
     1
281
     1
  3
ACAD_XREC_ROUNDTRIP
360
5B27
  0
DICTIONARY
  5
2A0
330
3D
100
AcDbDictionary
280
     1
281
     1
  3
ACAD_ROUNDTRIP_2008_TABLESTYLE_CELLSTYLEMAP
360
5AEB
  3
ACAD_XREC_ROUNDTRIP
360
5AF1
  0
DICTIONARY
  5
5AFC
330
253
100
AcDbDictionary
280
     1
281
     1
  3
ACAD_XREC_ROUNDTRIP
360
5AFD
  0
DICTIONARY
  5
5B00
330
255
100
AcDbDictionary
280
     1
281
     1
  3
ACAD_XREC_ROUNDTRIP
360
5B01
  0
DICTIONARY
  5
5AFE
330
254
100
AcDbDictionary
280
     1
281
     1
  3
ACAD_XREC_ROUNDTRIP
360
5AFF
  0
DICTIONARY
  5
5AFA
330
252
100
AcDbDictionary
280
     1
281
     1
  3
ACAD_XREC_ROUNDTRIP
360
5AFB
  0
DICTIONARY
  5
5B08
330
259
100
AcDbDictionary
280
     1
281
     1
  3
ACAD_XREC_ROUNDTRIP
360
5B09
  0
DICTIONARY
  5
5B10
330
25D
100
AcDbDictionary
280
     1
281
     1
  3
ACAD_XREC_ROUNDTRIP
360
5B11
  0
DICTIONARY
  5
5B02
330
256
100
AcDbDictionary
280
     1
281
     1
  3
ACAD_XREC_ROUNDTRIP
360
5B03
  0
DICTIONARY
  5
5B06
330
258
100
AcDbDictionary
280
     1
281
     1
  3
ACAD_XREC_ROUNDTRIP
360
5B07
  0
DICTIONARY
  5
5B24
330
31E
100
AcDbDictionary
280
     1
281
     1
  3
ACAD_XREC_ROUNDTRIP
360
5B25
  0
DICTIONARY
  5
5B0E
330
25C
100
AcDbDictionary
280
     1
281
     1
  3
ACAD_XREC_ROUNDTRIP
360
5B0F
  0
DICTIONARY
  5
5AF2
330
24E
100
AcDbDictionary
280
     1
281
     1
  3
ACAD_XREC_ROUNDTRIP
360
5AF3
  0
DICTIONARY
  5
5AF4
330
24F
100
AcDbDictionary
280
     1
281
     1
  3
ACAD_XREC_ROUNDTRIP
360
5AF5
  0
DICTIONARY
  5
5AF6
330
250
100
AcDbDictionary
280
     1
281
     1
  3
ACAD_XREC_ROUNDTRIP
360
5AF7
  0
DICTIONARY
  5
5AF8
330
251
100
AcDbDictionary
280
     1
281
     1
  3
ACAD_XREC_ROUNDTRIP
360
5AF9
  0
DICTIONARY
  5
5B14
330
316
100
AcDbDictionary
280
     1
281
     1
  3
ACAD_XREC_ROUNDTRIP
360
5B15
  0
DICTIONARY
  5
5B20
330
31C
100
AcDbDictionary
280
     1
281
     1
  3
ACAD_XREC_ROUNDTRIP
360
5B21
  0
DICTIONARY
  5
5B0C
330
25B
100
AcDbDictionary
280
     1
281
     1
  3
ACAD_XREC_ROUNDTRIP
360
5B0D
  0
DICTIONARY
  5
5B22
330
31D
100
AcDbDictionary
280
     1
281
     1
  3
ACAD_XREC_ROUNDTRIP
360
5B23
  0
DICTIONARY
  5
5B04
330
257
100
AcDbDictionary
280
     1
281
     1
  3
ACAD_XREC_ROUNDTRIP
360
5B05
  0
DICTIONARY
  5
5B1E
330
31B
100
AcDbDictionary
280
     1
281
     1
  3
ACAD_XREC_ROUNDTRIP
360
5B1F
  0
DICTIONARY
  5
5B1C
330
31A
100
AcDbDictionary
280
     1
281
     1
  3
ACAD_XREC_ROUNDTRIP
360
5B1D
  0
DICTIONARY
  5
5B16
330
317
100
AcDbDictionary
280
     1
281
     1
  3
ACAD_XREC_ROUNDTRIP
360
5B17
  0
DICTIONARY
  5
5B18
330
318
100
AcDbDictionary
280
     1
281
     1
  3
ACAD_XREC_ROUNDTRIP
360
5B19
  0
DICTIONARY
  5
5B0A
330
25A
100
AcDbDictionary
280
     1
281
     1
  3
ACAD_XREC_ROUNDTRIP
360
5B0B
  0
DICTIONARY
  5
5B12
330
315
100
AcDbDictionary
280
     1
281
     1
  3
ACAD_XREC_ROUNDTRIP
360
5B13
  0
DICTIONARY
  5
5B1A
330
319
100
AcDbDictionary
280
     1
281
     1
  3
ACAD_XREC_ROUNDTRIP
360
5B1B
  0
XRECORD
  5
5B29
102
{ACAD_REACTORS
330
5B28
102
}
330
5B28
100
AcDbXrecord
280
     1
102
DISPLAYNAME
  1
Imperial24
102
FLAGS
 90
        0
  0
XRECORD
  5
32D
102
{ACAD_REACTORS
330
32C
102
}
330
32C
100
AcDbXrecord
280
     1
310
280000000001000078000000010008000000000000780000010000000100000000010000000000002424240000000000FFFFFF000000000000000000000000000000000000000000000000000000000000000000330000006600000099000000CC000000FF00000000330000333300006633000099330000CC330000FF3300
310
0000660036336600006666003699660000CC660000FF66003F00990000339900006699000099990000CC990000FF99000000CC000033CC003F66CC000099CC0000CCCC0000FFCC00C000FF000033FF004066FF000099FF0000CCFF0000FFFF00000000330033003300660033009900333FCC003300FF003300003333003333
310
33006633330099333300CC3333FFFF3333000066330033663300666633FF99663300CC663300FF663300009933FF339933006699330099993300CC993300FF99330000CC330033CC330066CC330099CC3300CCCC3300FFCC334000FF330033FF330066FF330099FF333FCCFF3300FFFF333F00006600330066006600660099
310
006640CC006600FF00660000336600333366006633663699336600CC336600FF33660000666600336666006666660099666600CC666600FF66660000996600339966006699660099996600CC996600FF99660000CC660033CC660066CC660099CC6600CCCC6600FFCC660000FF660033FF660066FF660099FF6600CCFF6600
310
FFFF660000009900330099006600992E99009900CC009900FF00990000339900333399006633990099339900CC339900FF3399BC00669900336699006666995599669940CC669900FF6699400099992E339999006699990099999900CC999900FF99990000CC990033CC990066CC990099CC9900CCCC9900FFCC994000FF99
310
0033FF990066FF990099FF993FCCFF9900FFFF993F0000CC003300CC006600CC009900CC00CC00CC00FF00CC000033CC003333CC0E6633CC009933CC00CC33CC00FF33CC000066CC003366CC3F6666CC359966CC00CC66CC00FF66CC000099CC003399CC006699CC009999CC00CC99CC36FF99CC0000CCCC0033CCCC0066CC
310
CC0099CCCC00CCCCCC00FFCCCC0000FFCC0033FFCC0066FFCC0099FFCC00CCFFCC00FFFFCC400000FF003300FF006600FF009900FF3FCC00FF00FF00FF3F0033FF003333FF006633FF009933FF00CC33FF00FF33FF000066FF003366FF3F6666FF009966FF00CC66FFFFFF66FF000099FF003399FF006699FFFF9999FF00CC
310
99FF00FF99FF0000CCFF3633CCFF0066CCFF0099CCFF00CCCCFF00FFCCFF0000FFFF3533FFFF0066FFFF2E99FFFF00CCFFFF00FFFFFF00000000000D0D0D001A1A1A662828283F3535350043434300505050365D5D5D006B6B6B00787878008686860093939300A1A1A100AEAEAE00BBBBBB00C9C9C900D6D6D600E4E4E400
310
F1F1F100FFFFFF00000000000000000000000000000000400000000000000000000000000000003F000000000000003F00000000000000000000000000000000000000000000000000000000000000000000000000000000000000000000000000000000000000000000000000000000000000000000000000000000000000
310
00000000000000000000000000000000000000000000000000000000000000000000000000000000000000000000000000000000000000000000000000000000000000000000000000000000000000000000000000000000000000000000000000000000000000000000000000000000000000000000000000000000000000
310
00000000000000000000000000000000000000000000000000000000000000000000000000000000000000000000000000000000000000000000000000000000000000000000000000000000000000000000000000000000000000000000000000000000000000000000000000000000000000000000000000000000000000
310
00000000000000000000000000000000000000000000000000000000000000000000000000000000000000000000000000000000000000000000000000000000000000000000000000000000000000000000000000000000000000000000000000000000000000000000000000000000000000000000000000000000000000
310
00000000000000000000000000000000000000000000000000000000000000000000000000000000000000000000000000000000000000000000000000000000000000000000000000000000000000000000000000000000000000000000000000000000000000000000000000000000000000000000000000000000000000
310
00000000000000000000000000000000000000000000000000000000000000000000000000000000000000000000000000000000000000000000000000000000000000000000000000000000000000000000000000000000000000000000000000000000000000000000000000000000000000000000000000000000000000
310
00000000000000000000000000000000000000000000000000000000000000000000000000000000000000000000000000000000000000000000000000000000000000000000000000000000000000000000000000000000000000000000000000000000000000000000000000000000000000000000000000000000000000
310
00000000000000000000000000000000000000000000000000000000000000000000000000000000000000000000000000000000000000000000000000000000000000000000000000000000000000000000000000000000000000000000000000000000000000000000000000000000000000000000000000000000000000
310
00000000000000000000000000000000000000000000000000000000000000000000000000000000000000000000000000000000000000000000000000000000000000000000000000000000000000000000000000000000000000000000000000000000000000000000000000000000000000000000000000000000000000
310
00000000000000000000000000000000000000000000000000000000000000000000000000000000000000000000000000000000000000000000000000000000000000000000000000000000000000000000000000000000000000000000000000000000000000000000000000000000000000000000000000000000000000
310
00000000000000000000000000000000000000000000000000000000000000000000000000000000000000000000000000000000000000000000000000000000000000000000000000000000000000000000000000000000000000000000000000000000000000000000000000000000000000000000000000000000000000
310
00000000000000000000000000000000000000000000000000000000000000000000000000000000000000000000000000000000000000000000000000000000000000000000000000000000000000000000000000000000000000000000000000000000000000000000000000000000000000000000000000000000000000
310
00000000000000000000000000000000000000000000000000000000000000000000000000000000000000000000000000000000000000000000000000000000000000000000000000000000000000000000000000000000000000000000000000000000000000000000000000000000000000000000000000000000000000
310
00000000000000000000000000000000000000000000000000000000000000000000000000000000000000000000000000000000000000000000000000000000000000000000000000000000000000000000000000000000000000000000000000000000000000000000000000000000000000000000000000000000000000
310
00000000000000000000000000000000000000000000000000000000000000000000000000000000000000000000000000000000000000000000000000000000000000000000000000000000000000000000000000000000000000000000000000000000000000000000000000000000000000000000000000000000000000
310
00000000000000000000000000000000000000000000000000000000000000000000000000000000000000000000000000000000000000000000000000000000000000000000000000000000000000000000000000000000000000000000000000000000000000000000000000000000000000000000000000000000000000
310
00000000000000000000000000000000000000000000000000000000000000000000000000000000000000000000000000000000000000000000000000000000000000000000000000000000000000000000000000000000000000000000000000000000000000000000000000000000000000000000000000000000000000
310
00000000000000000000000000000000000000000000000000000000000000000000000000000000000000000000000000000000000000000000000000000000000000000000000000000000000000000000000000000000000000000000000000000000000000000000000000000000000000000000000000000000000000
310
00000000000000000000000000000000000000000000000000000000000000000000000000000000000000000000000000000000000000000000000000000000000000000000000000000000000000000000000000000000000000000000000000000000000000000000000000000000000000000000000000000000000000
310
00000000000000000000000000000000000000000000000000000000000000000000000000000000000000000000000000000000000000000000000000000000000000000000000000000000000000000000000000000000000000000000000000000000000000000000000000000000000000000000000000000000000000
310
00000000000000000000000000000000000000000000000000000000000000000000000000000000000000000000000000000000000000000000000000000000000000000000000000000000000000000000000000000000000000000000000000000000000000000000000000000000000000000000000000000000000000
310
00000000000000000000000000000000000000000000000000000000000000000000000000000000000000000000000000000000000000000000000000000000000000000000000000000000000000000000000000000000000000000000000000000000000000000000000000000000000000000000000000000000000000
310
00000000000000000000000000000000000000000000000000000000000000000000000000000000000000000000000000000000000000000000000000000000000000000000000000000000000000000000000000000000000000000000000000000000000000000000000000000000000000000000000000000000000000
310
00000000000000000000000000000000000000000000000000000000000000000000000000000000000000000000000000000000000000000000000000000000000000000000000000000000000000000000000000000000000000000000000000000000000000000000000000000000000000000000000000000000000000
310
00000000000000000000000000000000000000000000000000000000000000000000000000000000000000000000000000000000000000000000000000000000000000000000000000000000000000000000000000000000000000000000000000000000000000000000000000000000000000000000000000000000000000
310
00000000000000000000000000000000000000000000000000000000000000000000000000000000000000000000000000000000000000000000000000000000000000000000000000000000000000000000000000000000000000000000000000000000000000000000000000000000000000000000000000000000000000
310
00000000000000000000000000000000000000000000000000000000000000000000000000000000000000000000000000000000000000000000000000000000000000000000000000000000000000000000000000000000000000000000000000000000000000000000000000000000000000000000000000000000000000
310
00000000000000000000000000000000000000000000000000000000000000000000000000000000000000000000000000000000000000000000000000000000000000000000000000000000000000000000000000000000000000000000000000000000000000000000000000000000000000000000000000000000000000
310
00000000000000000000000000000000000000000000000000000000000000000000000000000000000000000000000000000000000000000000000000000000000000000000000000000000000000000000000000000000000000000000000000000000000000000000000000000000000000000000000000000000000000
310
00000000000000000000000000000000000000000000000000000000000000000000000000000000000000000000000000000000000000000000000000000000000000000000000000000000000000000000000000000000000000000000000000000000000000000000000000000000000000000000000000000000000000
310
00000000000000000000000000000000000000000000000000000000000000000000000000000000000000000000000000000000000000000000000000000000000000000000000000000000000000000000000000000000000000000000000000000000000000000000000000000000000000000000000000000000000000
310
00000000000000000000000000000000000000000000000000000000000000000000000000000000000000000000000000000000000000000000000000000000000000000000000000000000000000000000000000000000000000000000000000000000000000000000000000000000000000000000000000000000000000
310
00000000000000000000000000000000000000000000000000000000000000000000000000000000000000000000000000000000000000000000000000000000000000000000000000000000000000000000000000000000000000000000000000000000000000000000000000000000000000000000000000000000000000
310
00000000000000000000000000000000000000000000000000000000000000000000000000000000000000000000000000000000000000000000000000000000000000000000000000000000000000000000000000000000000000000000000000000000000000000000000000000000000000000000000000000000000000
310
00000000000000000000000000000000000000000000000000000000000000000000000000000000000000000000000000000000000000000000000000000000000000000000000000000000000000000000000000000000000000000000000000000000000000000000000000000000000000000000000000000000000000
310
00000000000000000000000000000000000000000000000000000000000000000000000000000000000000000000000000000000000000000000000000000000000000000000000000000000000000000000000000000000000000000000000000000000000000000000000000000000000000000000000000000000000000
310
00000000000000000000000000000000000000000000000000000000000000000000000000000000000000000000000000000000000000000000000000000000000000000000000000000000000000000000000000000000000000000000000000000000000000000000000000000000000000000000000000000000000000
310
00000000000000000000000000000000000000000000000000000000000000000000000000000000000000000000000000000000000000000000000000000000000000000000000000000000000000000000000000000000000000000000000000000000000000000000000000000000000000000000000000000000000000
310
00000000000000000000000000000000000000000000000000000000000000000000000000000000000000000000000000000000000000000000000000000000000000000000000000000000000000000000000000000000000000000000000000000000000000000000000000000000000000000000000000000000000000
310
00000000000000000000000000000000000000000000000000000000000000000000000000000000000000000000000000000000000000000000000000000000000000000000000000000000000000000000000000000000000000000000000000000000000000000000000000000000000000000000000000000000000000
310
00000000000000000000000000000000000000000000000000000000000000000000000000000000000000000000000000000000000000000000000000000000000000000000000000000000000000000000000000000000000000000000000000000000000000000000000000000000000000000000000000000000000000
310
00000000000000000000000000000000000000000000000000000000000000000000000000000000000000000000000000000000000000000000000000000000000000000000000000000000000000000000000000000000000000000000000000000000000000000000000000000000000000000000000000000000000000
310
00000000000000000000000000000000000000000000000000000000000000000000000000000000000000000000000000000000000000000000000000000000000000000000000000000000000000000000000000000000000000000000000000000000000000000000000000000000000000000000000000000000000000
310
00000000000000000000000000000000000000000000000000000000000000000000000000000000000000000000000000000000000000000000000000000000000000000000000000000000000000000000000000000000000000000000000000000000000000000000000000000000000000000000000000000000000000
310
00000000000000000000000000000000000000000000000000000000000000000000000000000000000000000000000000000000000000000000000000000000000000000000000000000000000000000000000000000000000000000000000000000000000000000000000000000000000000000000000000000000000000
310
00000000000000000000000000000000000000000000000000000000000000000000000000000000000000000000000000000000000000000000000000000000000000000000000000000000000000000000000000000000000000000000000000000000000000000000000000000000000000000000000000000000000000
310
00000000000000000000000000000000000000000000000000000000000000000000000000000000000000000000000000000000000000000000000000000000000000000000000000000000000000000000000000000000000000000000000000000000000000000000000000000000000000000000000000000000000000
310
00000000000000000000000000000000000000000000000000000000000000000000000000000000000000000000000000000000000000000000000000000000000000000000000000000000000000000000000000000000000000000000000000000000000000000000000000000000000000000000000000000000000000
310
00000000000000000000000000000000000000000000000000000000000000000000000000000000000000000000000000000000000000000000000000000000000000000000000000000000000000000000000000000000000000000000000000000000000000000000000000000000000000000000000000000000000000
310
00000000000000000000000000000000000000000000000000000000000000000000000000000000000000000000000000000000000000000000000000000000000000000000000000000000000000000000000000000000000000000000000000000000000000000000000000000000000000000000000000000000000000
310
00000000000000000000000000000000000000000000000000000000000000000000000000000000000000000000000000000000000000000000000000000000000000000000000000000000000000000000000000000000000000000000000000000000000000000000000000000000000000000000000000000000000000
310
00000000000000000000000000000000000000000000000000000000000000000000000000000000000000000000000000000000000000000000000000000000000000000000000000000000000000000000000000000000000000000000000000000000000000000000000000000000000000000000000000000000000000
310
00000000000000000000000000000000000000000000000000000000000000000000000000000000000000000000000000000000000000000000000000000000000000000000000000000000000000000000000000000000000000000000000000000000000000000000000000000000000000000000000000000000000000
310
00000000000000000000000000000000000000000000000000000000000000000000000000000000000000000000000000000000000000000000000000000000000000000000000000000000000000000000000000000000000000000000000000000000000000000000000000000000000000000000000000000000000000
310
00000000000000000000000000000000000000000000000000000000000000000000000000000000000000000000000000000000000000000000000000000000000000000000000000000000000000000000000000000000000000000000000000000000000000000000000000000000000000000000000000000000000000
310
00000000000000000000000000000000000000000000000000000000000000000000000000000000000000000000000000000000000000000000000000000000000000000000000000000000000000000000000000000000000000000000000000000000000000000000000000000000000000000000000000000000000000
310
00000000000000000000000000000000000000000000000000000000000000000000000000000000000000000000000000000000000000000000000000000000000000000000000000000000000000000000000000000000000000000000000000000000000000000000000000000000000000000000000000000000000000
310
00000000000000000000000000000000000000000000000000000000000000000000000000000000000000000000000000000000000000000000000000000000000000000000000000000000000000000000000000000000000000000000000000000000000000000000000000000000000000000000000000000000000000
310
00000000000000000000000000000000000000000000000000000000000000000000000000000000000000000000000000000000000000000000000000000000000000000000000000000000000000000000000000000000000000000000000000000000000000000000000000000000000000000000000000000000000000
310
00000000000000000000000000000000000000000000000000000000000000000000000000000000000000000000000000000000000000000000000000000000000000000000000000000000000000000000000000000000000000000000000000000000000000000000000000000000000000000000000000000000000000
310
00000000000000000000000000000000000000000000000000000000000000000000000000000000000000000000000000000000000000000000000000000000000000000000000000000000000000000000000000000000000000000000000000000000000000000000000000000000000000000000000000000000000000
310
00000000000000000000000000000000000000000000000000000000000000000000000000000000000000000000000000000000000000000000000000000000000000000000000000000000000000000000000000000000000000000000000000000000000000000000000000000000000000000000000000000000000000
310
00000000000000000000000000000000000000000000000000000000000000000000000000000000000000000000000000000000000000000000000000000000000000000000000000000000000000000000000000000000000000000000000000000000000000000000000000000000000000000000000000000000000000
310
00000000000000000000000000000000000000000000000000000000000000000000000000000000000000000000000000000000000000000000000000000000000000000000000000000000000000000000000000000000000000000000000000000000000000000000000000000000000000000000000000000000000000
310
00000000000000000000000000000000000000000000000000000000000000000000000000000000000000000000000000000000000000000000000000000000000000000000000000000000000000000000000000000000000000000000000000000000000000000000000000000000000000000000000000000000000000
310
00000000000000000000000000000000000000000000000000000000000000000000000000000000000000000000000000000000000000000000000000000000000000000000000000000000000000000000000000000000000000000000000000000000000000000000000000000000000000000000000000000000000000
310
00000000000000000000000000000000000000000000000000000000000000000000000000000000000000000000000000000000000000000000000000000000000000000000000000000000000000000000000000000000000000000000000000000000000000000000000000000000000000000000000000000000000000
310
00000000000000000000000000000000000000000000000000000000000000000000000000000000000000000000000000000000000000000000000000000000000000000000000000000000000000000000000000000000000000000000000000000000000000000000000000000000000000000000000000000000000000
310
00000000000000000000000000000000000000000000000000000000000000000000000000000000000000000000000000000000000000000000000000000000000000000000000000000000000000000000000000000000000000000000000000000000000000000000000000000000000000000000000000000000000000
310
00000000000000000000000000000000000000000000000000000000000000000000000000000000000000000000000000000000000000000000000000000000000000000000000000000000000000000000000000000000000000000000000000000000000000000000000000000000000000000000000000000000000000
310
00000000000000000000000000000000000000000000000000000000000000000000000000000000000000000000000000000000000000000000000000000000000000000000000000000000000000000000000000000000000000000000000000000000000000000000000000000000000000000000000000000000000000
310
00000000000000000000000000000000000000000000000000000000000000000000000000000000000000000000000000000000000000000000000000000000000000000000000000000000000000000000000000000000000000000000000000000000000000000000000000000000000000000000000000000000000000
310
00000000000000000000000000000000000000000000000000000000000000000000000000000000000000000000000000000000000000000000000000000000000000000000000000000000000000000000000000000000000000000000000000000000000000000000000000000000000000000000000000000000000000
310
00000000000000000000000000000000000000000000000000000000000000000000000000000000000000000000000000000000000000000000000000000000000000000000000000000000000000000000000000000000000000000000000000000000000000000000000000000000000000000000000000000000000000
310
00000000000000000000000000000000000000000000000000000000000000000000000000000000000000000000000000000000000000000000000000000000000000000000000000000000000000000000000000000000000000000000000000000000000000000000000000000000000000000000000000000000000000
310
00000000000000000000000000000000000000000000000000000000000000000000000000000000000000000000000000000000000000000000000000000000000000000000000000000000000000000000000000000000000000000000000000000000000000000000000000000000000000000000000000000000000000
310
00000000000000000000000000000000000000000000000000000000000000000000000000000000000000000000000000000000000000000000000000000000000000000000000000000000000000000000000000000000000000000000000000000000000000000000000000000000000000000000000000000000000000
310
00000000000000000000000000000000000000000000000000000000000000000000000000000000000000000000000000000000000000000000000000000000000000000000000000000000000000000000000000000000000000000000000000000000000000000000000000000000000000000000000000000000000000
310
00000000000000000000000000000000000000000000000000000000000000000000000000000000000000000000000000000000000000000000000000000000000000000000000000000000000000000000000000000000000000000000000000000000000000000000000000000000000000000000000000000000000000
310
00000000000000000000000000000000000000000000000000000000000000000000000000000000000000000000000000000000000000000000000000000000000000000000000000000000000000000000000000000000000000000000000000000000000000000000000000000000000000000000000000000000000000
310
00000000000000000000000000000000000000000000000000000000000000000000000000000000000000000000000000000000000000000000000000000000000000000000000000000000000000000000000000000000000000000000000000000000000000000000000000000000000000000000000000000000000000
310
00000000000000000000000000000000000000000000000000000000000000000000000000000000000000000000000000000000000000000000000000000000000000000000000000000000000000000000000000000000000000000000000000000000000000000000000000000000000000000000000000000000000000
310
00000000000000000000000000000000000000000000000000000000000000000000000000000000000000000000000000000000000000000000000000000000000000000000000000000000000000000000000000000000000000000000000000000000000000000000000000000000000000000000000000000000000000
310
00000000000000000000000000000000000000000000000000000000000000000000000000000000000000000000000000000000000000000000000000000000000000000000000000000000000000000000000000000000000000000000000000000000000000000000000000000000000000000000000000000000000000
310
00000000000000000000000000000000000000000000000000000000000000000000000000000000000000000000000000000000000000000000000000000000000000000000000000000000000000000000000000000000000000000000000000000000000000000000000000000000000000000000000000000000000000
310
00000000000000000000000000000000000000000000000000000000000000000000000000000000000000000000000000000000000000000000000000000000000000000000000000000000000000000000000000000000000000000000000000000000000000000000000000000000000000000000000000000000000000
310
00000000000000000000000000000000000000000000000000000000000000000000000000000000000000000000000000000000000000000000000000000000000000000000000000000000000000000000000000000000000000000000000000000000000000000000000000000000000000000000000000000000000000
310
00000000000000000000000000000000000000000000000000000000000000000000000000000000000000000000000000000000000000000000000000000000000000000000000000000000000000000000000000000000000000000000000000000000000000000000000000000000000000000000000000000000000000
310
00000000000000000000000000000000000000000000000000000000000000000000000000000000000000000000000000000000000000000000000000000000000000000000000000000000000000000000000000000000000000000000000000000000000000000000000000000000000000000000000000000000000000
310
00000000000000000000000000000000000000000000000000000000000000F5F5F5F5F5F5F5F5F5F5F5F5F5F5F5F5F5F5F5F5F5F5F5F5F5F5F5F5F5F5F5F5F5F5F5F5F5F5F5F5F5F5F5F5F5F5F5F5F5F5F5F5F5F5F5F5F5F5F5F5F5F5F5F5F5F5F5F5F5F5F5F5F5F5F5F5F5F5F5F5F5F5F5F5F5F5F5F5F5F5F5F5F5F5F5F5
310
F5F5F5F5F5F5F5F5F500000000000000000000000000000000000000000000000000000000000000000000000000000000000000000000000000000000000000000000000000000000000000000000000000000000000000000000000000000000000000000000000000000000000000000000000000000000000000000000
310
000000000000000000000000000000000000000000000000000000000000000000F5000000000000000000000000000000000000000000000000000000000000000000000000000000000000000000000000000000000000000000000000000000000000000000000000000000000000000000000000000000000000000000
310
00000000000000000000F50000000000000000000000000000000000000000000000000000000000000000000000000000000000000000000000000000000000000000000000000000000000000000000000000000000000000000000000000000000000000000000000000000000000000000000000000000000000000000
310
0000000000000000000000000000000000000000000000000000000000000000000000F500000000000000000000000000000000000000000000000000000000000000000000000000000000000000000000000000000000000000000000000000000000000000000000000000000000000000000000000000000000000000
310
000000000000000000000000F5000000000000000000000000000000000000000000000000000000000000000000000000000000000000000000000000000000000000000000000000000000000000000000000000000000000000000000000000000000000000000000000000000000000000000000000000000000000000
310
00000000000000000000000000000000000000000000000000000000000000000000000000F50000000000000000000000000000000000000000000000000000000000000000000000000000000000000000000000000000000000000000000000000000000000000000000000000000000000000000000000000000000000
310
0000000000000000000000000000F500000000000000000000000000000000000000000000000000000000000000000000000000000000000000000000000000000000000000000000000000000000000000000000000000000000000000000000000000000000000000000000000000000000000000000000000000000000
310
000000000000000000000000000000000000000000000000000000000000000000000000000000F5000000000000BEBEBEECBEBEBEBEBEBEBEBEBEBEBEBEBEBEBEECBEBEBEBEBEBEF52D2D2D2D2D2D2D2DBE2D2DBEF52D2D2D2DBEBEBEBEBEBE2D2D2D2DBEBEBEBEBEBEF52D2D2D2DBEBE2D2D2D2D2D2DBEBEF5ECECECECEC
310
ECECECECECECECECECECECECECBE0000F50000000000000000000000000000000000000000000000000000000000000000000000000000000000000000000000000000000000000000000000000000000000000000000000000000000000000000000000000000000000000000000000000000000000000000000000000000
310
0000000000000000000000000000000000000000000000000000000000000000000000000000000000F5000000000000BEF5F5ECF5F5F5F5F5F5F5F5F5F5F5F5F5F5F5ECF5F5F5F5F5F5F52D2D2D2D2D2D2D2DF52D2DF5F52D2D2D2DF5F5F5F5F5F52D2D2D2DF5F5F5F5F5F5F52D2D2D2DF5F52D2D2D2D2D2DF5F5F5ECECEC
310
ECECECECECECECECECECECECECECECBE0000F5000000000000000000000000000000000000000000000000000000000000000000000000000000000000000000000000000000000000000000000000000000000000000000000000000000000000000000000000000000000000000000000000000000000000000000000000
310
00000000000000000000000000000000000000000000000000000000000000000000000000000000000000F5000000000000BE0000EC000000000000000000000000000000EC000000000000F52D2D2D2D2D2D2D2D002D2D00F52D002D2D0000000000002D2D2D2D000000000000F52D2D2D2D0000002D2D2D2D000000F5EC
310
ECECECECECECECECECECECECECECECECECBE0000F500000000000000000000000000000000000000000000000000000000000000000000000000000000000000000000000000000000000000000000000000000000000000000000000000000000000000000000000000000000000000000000000000000000000000000000
310
000000000000000000000000000000000000000000000000000000000000000000000000000000000000000000F5000000000000BEF5F5ECF5F5F5F5F5F5F5F5F5F5F5F5F5F5F5ECF5F5F5F5F5F5F52D2D2D2D2D2D2D2DF52D2DF5F52DF52DECF5F5F5F5F5F52D2D2D2DF5F5F5F5F5F5F52D2D2DECF5F5F52D2D2D2DF5F5F5
310
F5ECECECECECECF5F5ECECECF5F5F5F5ECF5F5BE0000F50000000000000000000000000000000000000000000000000000000000000000000000000000000000000000000000000000000000000000000000000000000000000000000000000000000000000000000000000000000000000000000000000000000000000000
310
0000000000000000000000000000000000000000000000000000000000000000000000000000000000000000000000F5000000000000BE2D2D2D00000000002D2D2D2D2D0000000000EC002D2D2D2D00F52D2D2D2D2D2D2D2D002D2D2DF52D2D2D2D0000000000002D2D2D2D000000000000F52D2D2D2D00002D2D2D2D2D2D
310
0000F52D2D2DEC00002D2D2D2D0000002D2D2D2D2DBE0000F5000000000000000000000000000000000000000000000000000000000000000000000000000000000000000000000000000000000000000000000000000000000000000000000000000000000000000000000000000000000000000000000000000000000000
310
00000000000000000000000000000000000000000000000000000000000000000000000000000000000000000000000000F5000000000000BE2DBEECBEBEBEBEBE2D2D2DBEBEBEBEBEBEBEECBE2DBE2DBEBEF52D2D2DBEBE2D2D2DBEBEBEBEF52D2D2DECBEBEBEBEBEBEBEBEBEBEBEBEBEBEBEBEF5BEBE2DECBEBEBEBEBEBE
310
BEBEBEBEF5BE2D2DECBEBEBEBEBEBEBEBEBE2D2D2D2D2DBE0000F500000000000000000000000000000000000000000000000000000000000000000000000000000000000000000000000000000000000000000000000000000000000000000000000000000000000000000000000000000000000000000000000000000000
310
000000000000000000000000000000000000000000000000000000000000000000000000000000000000000000000000000000F5000000000000BE0000000000000000000000000000000000000000000000000000000000000000000000000000000000000000000000000000000000000000000000000000000000000000
310
00000000000000000000000000000000000000000000000000BE0000F50000000000000000000000000000000000000000000000000000000000000000000000000000000000000000000000000000000000000000000000000000000000000000000000000000000000000000000000000000000000000000000000000000
310
0000000000000000000000000000000000000000000000000000000000000000000000000000000000000000000000000000000000F5000000000000BE000000000000000000000000000000000000000000000000000000000000000000000000000000000000000000000000000000000000000000000000000000000000
310
000000000000000000000000000000000000000000000000000000BE0000F5000000000000000000000000000000000000000000000000000000000000000000000000000000000000000000000000000000000000000000000000000000000000000000000000000000000000000000000000000000000000000000000000
310
00000000000000000000000000000000000000000000000000000000000000000000000000000000000000000000000000000000000000F5000000000000BE00000000000000000000000000000000000000000000000000000000000000000000000000000000000000000000000000000000000000000000000000000000
310
0000000000000000000000000000000000000000000000000000000000BE0000F500000000000000000000000000000000000000000000000000000000000000000000000000000000000000000000000000000000000000000000000000000000000000000000000000000000000000000000000000000000000000000000
310
000000000000000000000000000000000000000000000000000000000000000000000000000000000000000000000000000000000000000000F5000000000000BE0000000000000000000000000000000000000000000000002D2D2D2D2D2D2D2D2D2D2D00000000000000000000000000000000000000000000000000002D
310
2D2D2D2D2D2D2D2D2D2D2D2D2D2D2D2D2D2D2D2D2D2D2D2D2D2D2D2D000000BE0000F50000000000000000000000000000000000000000000000000000000000000000000000000000000000000000000000000000000000000000000000000000000000000000000000000000000000000000000000000000000000000000
310
0000000000000000000000000000000000000000000000000000000000000000000000000000000000000000000000000000000000000000000000F5000000000000BE0000000000000000000000000000000000000000000000002D2D2D2D2D2D002D2D2D0000000000000000000000000000000000000000000000000000
310
002D2D2D2D2D2D2D2D2D2D2D2D2D2D2D2D2D2D2D2D2D2D2D2D0000000000000000BE0000F5000000000000000000000000000000000000000000000000000000000000000000000000000000000000000000000000000000000000000000000000000000000000000000000000000000000000000000000000000000000000
310
00000000000000000000000000000000000000000000000000000000000000000000000000000000000000000000000000000000000000000000000000F5000000000000BE00000000000000000000000000000000000000000000000000000000000000000000000000000000000000000000000000000000000000000000
310
0000000000000000000000000000000000000000000000000000000000000000000000BE0000F500000000000000000000000000000000000000000000000000000000000000000000000000000000000000000000000000000000000000000000000000000000000000000000000000000000000000000000000000000000
310
000000000000000000000000000000000000000000000000000000000000000000000000000000000000000000000000000000000000000000000000000000F5000000000000BE0000000000000000000000000000000000000000000000000000000000000000000000000000000000000000000000000000000000000000
310
00000000000000000000000000000000000000000000000000000000000000000000000000BE0000F50000000000000000000000000000000000000000000000000000000000000000000000000000000000000000000000000000000000000000000000000000000000000000000000000000000000000000000000000000
310
0000000000000000000000000000000000000000000000000000000000000000000000000000000000000000000000000000000000000000000000000000000000F5000000000000BE000000000000000000000000000000000000000000000000000000000000000000000000000000000000000000000000000000000000
310
000000000000000000000000000000000000000000000000000000000000000000000000000000BE0000F5000000000000000000000000000000000000000000000000000000000000000000000000000000000000000000000000000000000000000000000000000000000000000000000000000000000000000000000000
310
00000000000000000000000000000000000000000000000000000000000000000000000000000000000000000000000000000000000000000000000000000000000000F5000000000000BE00000000000000000000000000000000000000000000000000000000000000000000000000000000000000000000000000000000
310
0000000000000000000000000000000000000000000000000000000000000000000000000000000000BE0000F500000000000000000000000000000000000000000000000000000000000000000000000000000000000000000000000000000000000000000000000000000000000000000000000000000000000000000000
310
000000000000000000000000000000000000000000000000000000000000000000000000000000000000000000000000000000000000000000000000000000000000000000F5000000000000BE0000000000000000000000000000000000000000000000000000000000000000000000000000000000000000000000000000
310
00000000000000000000000000000000000000000000000000000000000000000000000000000000000000BE0000F50000000000000000000000000000000000000000000000000000000000000000000000000000000000000000000000000000000000000000000000000000000000000000000000000000000000000000
310
0000000000000000000000000000000000000000000000000000000000000000000000000000000000000000000000000000000000000000000000000000000000000000000000F5000000000000BE0000000000000000000000000000000000000000000000000000ECECF5F5ECEC00000000000000000000000000000000
310
000000000000000000000000000000000000000000000000000000000000000000000000000000000000000000BE0000F5000000000000000000000000000000000000000000000000000000000000000000000000000000000000000000000000000000000000000000000000000000000000000000000000000000000000
310
00000000000000000000000000000000000000000000000000000000000000000000000000000000000000000000000000000000000000000000000000000000000000000000000000F5000000000000BE0000000000000000000000000000000000000000000000000000ECECF5F5ECEC0000000000000000000000000000
310
0000000000000000000000000000000000000000000000000000000000000000000000000000000000000000000000BE0000F500000000000000000000000000000000000000000000000000000000000000000000000000000000000000000000000000000000000000000000000000000000000000000000000000000000
310
000000000000000000000000000000000000000000000000000000000000000000000000000000000000000000000000000000000000000000000000000000000000000000000000000000F5000000000000BE0000000000000000000000000000000000000000000000000000F5F5F5F5F5F5000000000000000000000000
310
00000000000000000000000000000000000000000000000000000000000000000000000000000000000000000000000000BE0000F50000000000000000000000000000000000000000000000000000000000000000000000000000000000000000000000000000000000000000000000000000000000000000000000000000
310
0000000000000000000000000000000000000000000000000000000000000000000000000000000000000000000000000000000000000000000000000000000000000000000000000000000000F5000000000000BE0000000000000000000000000000000000000000000000000000F5ECECECECF500000000000000000000
310
000000000000000000000000000000000000000000000000000000000000000000000000000000000000000000000000000000BE0000F5000000000000000000000000000000000000000000000000000000000000000000000000000000000000000000000000000000000000000000000000000000000000000000000000
310
00000000000000000000000000000000000000000000000000000000000000000000000000000000000000000000000000000000000000000000000000000000000000000000000000000000000000F5000000000000BE0000000000000000000000000000000000000000000000000000F5F5F5F5F5F50000000000000000
310
0000000000000000000000000000000000000000000000000000000000000000000000000000000000000000000000000000000000BE0000F500000000000000000000000000000000000000000000000000000000000000000000000000000000000000000000000000000000000000000000000000000000000000000000
310
000000000000000000000000000000000000000000000000000000000000000000000000000000000000000000000000000000000000000000000000000000000000000000000000000000000000000000F5000000000000BE0000000000000000000000000000000000000000000000000000000000000000000000000000
310
00000000000000000000000000000000000000000000000000000000000000000000000000000000000000000000000000000000000000BE0000F50000000000000000000000000000000000000000000000000000000000000000000000000000000000000000000000000000000000000000000000000000000000000000
310
0000000000000000000000000000000000000000000000000000000000000000000000000000000000000000000000000000000000000000000000000000000000000000000000000000000000000000000000F5000000000000BE000000000000000000000000000000000000000000000000000000000000000000000000
310
000000000000000000000000000000000000000000000000000000000000000000000000000000000000000000000000000000000000000000BE0000F5000000000000000000000000000000000000000000000000000000000000000000000000000000000000000000000000000000000000000000000000000000000000
310
00000000000000000000000000000000000000000000000000000000000000000000000000000000000000000000000000000000000000000000000000000000000000000000000000000000000000000000000000F5000000000000BE00000000000000000000000000000000000000000000000000000000000000000000
310
0000000000000000000000000000000000000000000000000000000000000000000000000000000000000000000000000000000000000000000000BE0000F500000000000000000000000000000000000000000000000000000000000000000000000000000000000000000000000000000000000000000000000000000000
310
000000000000000000000000000000000000000000000000000000000000000000000000000000000000000000000000000000000000000000000000000000000000000000000000000000000000000000000000000000F5000000000000BE0000000000000000000000000000000000000000000000000000000000000000
310
00000000000000000000000000000000000000000000000000000000000000000000000000000000000000000000000000000000000000000000000000BE0000F50000000000000000000000000000000000000000000000000000000000000000000000000000000000000000000000000000000000000000000000000000
310
0000000000000000000000000000000000000000000000000000000000000000000000000000000000000000000000000000000000000000000000000000000000000000000000000000000000000000000000000000000000F5000000000000BE000000000000000000000000000000000000000000000000000000000000
310
000000000000000000000000000000000000000000000000000000000000000000000000000000000000000000000000000000000000000000000000000000BE0000F5000000000000000000000000000000000000000000000000000000000000000000000000000000000000000000000000000000000000000000000000
310
00000000000000000000000000000000000000000000000000000000000000000000000000000000000000000000000000000000000000000000000000000000000000000000000000000000000000000000000000000000000000F5000000000000BE00000000000000000000000000000000000000000000000000000000
310
0000000000000000000000000000000000000000000000000000000000000000000000000000000000000000000000000000000000000000000000000000000000BE0000F500000000000000000000000000000000000000000000000000000000000000000000000000000000000000000000000000000000000000000000
310
000000000000000000000000000000000000000000000000000000000000000000000000000000000000000000000000000000000000000000000000000000000000000000000000000000000000000000000000000000000000000000F5000000000000BE0000000000000000000000000000000000000000000000000000
310
00000000000000000000000000000000000000000000000000000000000000000000000000000000000000000000000000000000000000000000000000000000000000BE0000F50000000000000000000000000000000000000000000000000000000000000000000000000000000000000000000000000000000000000000
310
0000000000000000000000000000000000000000000000000000000000000000000000000000000000000000000000000000000000000000000000000000000000000000000000000000000000000000000000000000000000000000000000F5000000000000BE000000000000000000000000000000000000000000000000
310
000000000000000000000000000000000000000000000000000000000000000000000000000000000000000000000000000000000000000000000000000000000000000000BE0000F5000000000000000000000000000000000000000000000000000000000000000000000000000000000000000000000000000000000000
310
00000000000000000000000000000000000000000000000000000000000000000000000000000000000000000000000000000000000000000000000000000000000000000000000000000000000000000000000000000000000000000000000000F5000000000000BE00000000000000000000000000000000000000000000
310
0000000000000000000000000000000000000000000000000000000000000000000000000000000000000000000000000000000000000000000000000000000000000000000000BE0000F500000000000000000000000000000000000000000000000000000000000000000000000000000000000000000000000000000000
310
000000000000000000000000000000000000000000000000000000000000000000000000000000000000000000000000000000000000000000000000000000000000000000000000000000000000000000000000000000000000000000000000000000F5000000000000BE0000000000000000000000000000000000000000
310
00000000000000000000000000000000000000000000000000000000000000000000000000000000000000000000000000000000000000000000000000000000000000000000000000BE0000F50000000000000000000000000000000000000000000000000000000000000000000000000000000000000000000000000000
310
0000000000000000000000000000000000000000000000000000000000000000000000000000000000000000000000000000000000000000000000000000000000000000000000000000000000000000000000000000000000000000000000000000000000F5000000000000BE000000000000000000000000000000000000
310
000000000000000000000000000000000000000000000000000000000000000000000000000000000000000000000000000000000000000000000000000000000000000000000000000000BE0000F5000000000000000000000000000000000000000000000000000000000000000000000000000000000000000000000000
310
00000000000000000000000000000000000000000000000000000000000000000000000000000000000000000000000000000000000000000000000000000000000000000000000000000000000000000000000000000000000000000000000000000000000000F5000000000000BE00000000000000000000000000000000
310
0000000000000000000000000000000000000000000000000000000000000000000000000000000000000000000000000000000000000000000000000000000000000000000000000000000000BE0000F500000000000000000000000000000000000000000000000000000000000000000000000000000000000000000000
310
000000000000000000000000000000000000000000000000000000000000000000000000000000000000000000000000000000000000000000000000000000000000000000000000000000000000000000000000000000000000000000000000000000000000000000F5000000000000BE0000000000000000000000000000
310
00000000000000000000000000000000000000000000000000000000000000000000000000000000000000000000000000000000000000000000000000000000000000000000000000000000000000BE0000F50000000000000000000000000000000000000000000000000000000000000000000000000000000000000000
310
0000000000000000000000000000000000000000000000000000000000000000000000000000000000000000000000000000000000000000000000000000000000000000000000000000000000000000000000000000000000000000000000000000000000000000000000F5000000000000BE000000000000000000000000
310
000000000000000000000000000000000000000000000000000000000000000000000000000000000000000000000000000000000000000000000000000000000000000000000000000000000000000000BE0000F5000000000000000000000000000000000000000000000000000000000000000000000000000000000000
310
00000000000000000000000000000000000000000000000000000000000000000000000000000000000000000000000000000000000000000000000000000000000000000000000000000000000000000000000000000000000000000000000000000000000000000000000000F5000000000000BE00000000000000000000
310
0000000000000000000000000000000000000000000000000000000000000000000000000000000000000000000000000000000000000000000000000000000000000000000000000000000000000000000000BE0000F500000000000000000000000000000000000000000000000000000000000000000000000000000000
310
000000000000000000000000000000000000000000000000000000000000000000000000000000000000000000000000000000000000000000000000000000000000000000000000000000000000000000000000000000000000000000000000000000000000000000000000000000F5000000000000BE0000000000000000
310
00000000000000000000000000000000000000000000000000000000000000000000000000000000000000000000000000000000000000000000000000000000000000000000000000000000000000000000000000BE0000F50000000000000000000000000000000000000000000000000000000000000000000000000000
310
0000000000000000000000000000000000000000000000000000000000000000000000000000000000000000000000000000000000000000000000000000000000000000000000000000000000000000000000000000000000000000000000000000000000000000000000000000000000F5000000000000BE000000000000
310
000000000000000000000000000000000000000000000000000000000000000000000000000000000000000000000000000000000000000000000000000000000000000000000000000000000000000000000000000000BE0000F5000000000000000000000000000000000000000000000000000000000000000000000000
310
00000000000000000000000000000000000000000000000000000000000000000000000000000000000000000000000000000000000000000000000000000000000000000000000000000000000000000000000000000000000000000000000000000000000000000000000000000000000000F5000000000000BE00000000
310
0000000000000000000000000000000000000000000000000000000000000000000000000000000000000000000000000000000000000000000000000000000000000000000000000000000000000000000000000000000000BE0000F500000000000000000000000000000000000000000000000000000000000000000000
310
000000000000000000000000000000000000000000000000000000000000000000000000000000000000000000000000000000000000000000000000000000000000000000000000000000000000000000000000000000000000000000000000000000000000000000000000000000000000000000F5000000000000BE0000
310
00000000000000000000000000000000000000000000000000000000000000000000000000000000000000000000000000000000000000000000000000000000000000000000000000000000000000000000000000000000000000BE0000F50000000000000000000000000000000000000000000000000000000000000000
310
0000000000000000000000000000000000000000000000000000000000000000000000000000000000000000000000000000000000000000000000000000000000000000000000000000000000000000000000000000000000000000000000000000000000000000000000000000000000000000000000F5000000000000BE
310
000000000000000000000000000000000000000000000000000000000000000000000000000000000000000000000000000000000000000000000000000000000000000000002D2D2D2D2D2D2D2D2D2D2D000000000000000000000000BE0000F5000000000000000000000000000000000000000000000000000000000000
310
00000000000000000000000000000000000000000000000000000000000000000000000000000000000000000000000000000000000000000000000000000000000000000000000000000000000000000000000000000000000000000000000000000000000000000000000000000000000000000000000000F50000000000
310
00BE000000000000000000000000000000000000000000000000000000000000000000000000000000000000000000000000000000000000000000000000000000000000000000002D2D2D2D2D2D2D2D2D2D2D000000000000000000000000BE0000F500000000000000000000000000000000000000000000000000000000
310
000000000000000000000000000000000000000000000000000000000000000000000000000000000000000000000000000000000000000000000000000000000000000000000000000000000000000000000000000000000000000000000000000000000000000000000000000000000000000000000000000000F5000000
310
000000BE000000000000000000000000000000000000000000000000000000000000000000000000000000000000000000000000000000000000000000000000000000000000000000000000000000000000000000000000000000000000000000BE0000F50000000000000000000000000000000000000000000000000000
310
0000000000000000000000000000000000000000000000000000000000000000000000000000000000000000000000000000000000000000000000000000000000000000000000000000000000000000000000000000000000000000000000000000000000000000000000000000000000000000000000000000000000F500
310
0000000000BE000000000000000000000000000000000000000000000000000000000000000000000000000000000000000000000000000000000000000000000000000000000000000000000000000000000000000000000000000000000000000000BE0000F5000000000000000000000000000000000000000000000000
310
00000000000000000000000000000000000000000000000000000000000000000000000000000000000000000000000000000000000000000000000000000000000000000000000000000000000000000000000000000000000000000000000000000000000000000000000000000000000000000000000000000000000000
310
F5000000000000BE000000000000000000000000000000000000000000000000000000000000000000000000000000000000000000000000000000000000000000000000000000000000000000000000000000000000000000000000000000000000000000BE0000F500000000000000000000000000000000000000000000
310
00000000000000000000000000000000000000000000000000000000000000000000000000000000000000000000000000000000000000000000000000000000000000000000000000000000000000000000000000000000000000000000000000000000000000000000000000000000000000000000000000000000000000
310
0000F5000000000000BE000000000000000000000000000000000000000000000000000000000000000000000000000000000000000000000000000000000000000000000000000000000000000000000000000000000000000000000000000000000000000000BE0000F50000000000000000000000000000000000000000
310
00000000000000000000000000000000000000000000000000000000000000000000000000000000000000000000000000000000000000000000000000000000000000000000000000000000000000000000000000000000000000000000000000000000000000000000000000000000000000000000000000000000000000
310
00000000F5000000000000BE0000000000000000000000000000000000000000000000002D2D2D2D2D2D2D2D2D2D2D00000000000000000000000000000000000000000000000000000000000000000000000000000000000000000000000000000000000000000000BE0000F5000000000000000000000000000000000000
310
00000000000000000000000000000000000000000000000000000000000000000000000000000000000000000000000000000000000000000000000000000000000000000000000000000000000000000000000000000000000000000000000000000000000000000000000000000000000000000000000000000000000000
310
000000000000F5000000000000BE0000000000000000000000000000000000000000000000002D2D2D2D2D2D002D2D2D0000000000000000000000000000000000000000000000000000000000000000000000000000000000000000000000000000000000000000000000BE0000F500000000000000000000000000000000
310
00000000000000000000000000000000000000000000000000000000000000000000000000000000000000000000000000000000000000000000000000000000000000000000000000000000000000000000000000000000000000000000000000000000000000000000000000000000000000000000000000000000000000
310
0000000000000000F5000000000000BE000000000000000000000000000000000000000000000000000000000000000000000000000000000000000000000000000000000000000000000000000000000000000000000000000000000000000000000000000000000000000000BE0000F50000000000000000000000000000
310
00000000000000000000000000000000000000000000000000000000000000000000000000000000000000000000000000000000000000000000000000000000000000000000000000000000000000000000000000000000000000000000000000000000000000000000000000000000000000000000000000000000000000
310
00000000000000000000F5000000000000BE000000000000000000000000000000000000000000000000000000000000000000000000000000000000000000000000000000000000000000000000000000000000000000000000000000000000000000000000000000000000000000BE0000F5000000000000000000000000
310
00000000000000000000000000000000000000000000000000000000000000000000000000000000000000000000000000000000000000000000000000000000000000000000000000000000000000000000000000000000000000000000000000000000000000000000000000000000000000000000000000000000000000
310
000000000000000000000000F5000000000000BE000000000000000000000000000000000000000000000000000000000000000000000000000000000000000000000000000000000000000000000000000000000000000000000000000000000000000000000000000000000000000000BE0000F500000000000000000000
310
00000000000000000000000000000000000000000000000000000000000000000000000000000000000000000000000000000000000000000000000000000000000000000000000000000000000000000000000000000000000000000000000000000000000000000000000000000000000000000000000000000000000000
310
0000000000000000000000000000F5000000000000BE000000000000000000000000000000000000000000000000000000000000000000000000000000000000000000000000000000000000000000000000000000000000000000000000000000000000000000000000000000000000000000BE0000F50000000000000000
310
00000000000000000000000000000000000000000000000000000000000000000000000000000000000000000000000000000000000000000000000000000000000000000000000000000000000000000000000000000000000000000000000000000000000000000000000000000000000000000000000000000000000000
310
00000000000000000000000000000000F5000000000000BE000000000000000000000000000000000000000000000000000000000000000000000000000000000000000000000000000000000000000000000000000000000000000000000000000000000000000000000000000000000000000000BE0000F5000000000000
310
00000000000000000000000000000000000000000000000000000000000000000000000000000000000000000000000000000000000000000000000000000000000000000000000000000000000000000000000000000000000000000000000000000000000000000000000000000000000000000000000000000000000000
310
000000000000000000000000000000000000F5000000000000BE000000000000000000000000000000000000000000000000000000000000000000000000000000000000000000000000000000000000000000000000000000000000000000000000000000000000000000000000000000000000000000BE0000F500000000
310
00000000000000000000000000000000000000000000000000000000000000000000000000000000000000000000000000000000000000000000000000000000000000000000000000000000000000000000000000000000000000000000000000000000000000000000000000000000000000000000000000000000000000
310
0000000000000000000000000000000000000000F5000000000000BE000000000000000000000000000000000000000000000000000000000000000000000000000000000000000000000000000000000000000000000000000000000000000000000000000000000000000000000000000000000000000000BE0000F50000
310
00000000000000000000000000000000000000000000000000000000000000000000000000000000000000000000000000000000000000000000000000000000000000000000000000000000000000000000000000000000000000000000000000000000000000000000000000000000000000000000000000000000000000
310
00000000000000000000000000000000000000000000F5000000000000BE000000000000000000000000000000000000000000000000000000000000000000000000000000000000000000000000000000000000000000000000000000000000000000000000000000000000000000000000000000000000000000BE0000F5
310
00000000000000000000000000000000000000000000000000000000000000000000000000000000000000000000000000000000000000000000000000000000000000000000000000000000000000000000000000000000000000000000000000000000000000000000000000000000000000000000000000000000000000
310
000000000000000000000000000000000000000000000000F5000000000000BE000000000000000000000000000000000000000000000000000000000000000000000000000000000000000000000000000000000000000000000000000000000000000000000000000000000000000000000000000000000000000000BE00
310
00F50000000000000000000000000000000000000000000000000000000000000000000000000000000000000000000000000000000000000000000000000000000000000000000000000000000000000000000000000000000000000000000000000000000000000000000000000000000000000000000000000000000000
310
0000000000000000000000000000000000000000000000000000F5000000000000BE000000000000000000000000000000000000000000000000000000000000000000000000000000000000000000000000000000000000000000000000000000000000000000000000000000000000000000000000000000000000000000
310
BE0000F5000000000000000000000000000000000000000000000000000000000000000000000000000000000000000000000000000000000000000000000000000000000000000000000000000000000000000000000000000000000000000000000000000000000000000000000000000000000000000000000000000000
310
00000000000000000000000000000000000000000000000000000000F5000000000000BE00000000000000000000000000000000000000000000000000000000000000000000000000000000000000000000000000000000000000000000000000000000000000000000000000000000000000000000000000000000000000
310
0000BE0000F500000000000000000000000000000000000000000000000000000000000000000000000000000000000000000000000000000000000000000000000000000000000000000000000000000000000000000000000000000000000000000000000000000000000000000000000000000000000000000000000000
310
000000000000000000000000000000000000000000000000000000000000F5000000000000BE0000000000000000000000000000000000000000000000000000000000000000000000000000000000000000000000000000000000000000000000000000000000000000000000000000000000000000000000000000000000
310
00000000BE0000F50000000000000000000000000000000000000000000000000000000000000000000000000000000000000000000000000000000000000000000000000000000000000000000000000000000000000000000000000000000000000000000000000000000000000000000000000000000000000000000000
310
0000000000000000000000000000000000000000000000000000000000000000F5000000000000BE000000000000000000000000000000000000000000000000000000000000000000000000000000000000000000000000000000000000000000000000000000000000000000000000000000000000000000000000000000
310
000000000000BE0000F5000000000000000000000000000000000000000000000000000000000000000000000000000000000000000000000000000000000000000000000000000000000000000000000000000000000000000000000000000000000000000000000000000000000000000000000000000000000000000000
310
00000000000000000000000000000000000000000000000000000000000000000000F5000000000000BE00000000000000000000000000000000000000000000000000000000000000000000000000000000000000000000000000000000000000000000000000000000000000000000000000000000000000000000000000
310
0000000000000000BE0000F500000000000000000000000000000000000000000000000000000000000000000000000000000000000000000000000000000000000000000000000000000000000000000000000000000000000000000000000000000000000000000000000000000000000000000000000000000000000000
310
000000000000000000000000000000000000000000000000000000000000000000000000F5000000000000BE0000000000000000000000000000000000000000000000000000000000000000000000000000000000000000000000000000000000000000000000000000000000000000000000000000000000000000000000
310
00000000000000000000BE0000F50000000000000000000000000000000000000000000000000000000000000000000000000000000000000000000000000000000000000000000000000000000000000000000000000000000000000000000000000000000000000000000000000000000000000000000000000000000000
310
0000000000000000000000000000000000000000000000000000000000000000000000000000F5000000000000BE000000000000000000000000000000000000000000000000000000000000000000000000000000000000000000000000000000000000000000000000000000000000000000000000000000000000000000
310
000000000000000000000000BE0000F5000000000000000000000000000000000000000000000000000000000000000000000000000000000000000000000000000000000000000000000000000000000000000000000000000000000000000000000000000000000000000000000000000000000000000000000000000000
310
00000000000000000000000000000000000000000000000000000000000000000000000000000000F5000000000000BE00000000000000000000000000000000000000000000000000000000000000000000000000000000000000000000000000000000000000000000000000000000000000000000000000000000000000
310
0000000000000000000000000000BE0000F500000000000000000000000000000000000000000000000000000000000000000000000000000000000000000000000000000000000000000000000000000000000000000000000000000000000000000000000000000000000000000000000000000000000000000000000000
310
000000000000000000000000000000000000000000000000000000000000000000000000000000000000F5000000000000BE0000000000000000000000000000000000000000000000000000000000000000000000000000000000000000000000000000000000000000000000000000000000000000000000000000000000
310
00000000000000000000000000000000BE0000F50000000000000000000000000000000000000000000000000000000000000000000000000000000000000000000000000000000000000000000000000000000000000000000000000000000000000000000000000000000000000000000000000000000000000000000000
310
0000000000000000000000000000000000000000000000000000000000000000000000000000000000000000F5000000000000BEBEBEBEBEBEBEBEBEBEBEBEBEBEBEBEBEBEBEBEBEBEBEBEBEBEBEBEBEBEBEBEBEBEBEBEBEBEBEBEBEBEBEBEBEBEBEBEBEBEBEBEBEBEBEBEBEBEBEBEBEBEBEBEBEBEBEBEBEBEBEBEBEBEBEBE
310
BEBEBEBEBEBEBEBEBEBEBEBEBEBEBEBEBEBEBE0000F5000000000000000000000000000000000000000000000000000000000000000000000000000000000000000000000000000000000000000000000000000000000000000000000000000000000000000000000000000000000000000000000000000000000000000000
310
00000000000000000000000000000000000000000000000000000000000000000000000000000000000000000000F50000000000000000000000000000000000000000000000000000000000000000000000000000000000000000000000000000000000000000000000000000000000000000000000000000000000000000
310
0000000000000000000000000000000000000000000000F500000000000000000000000000000000000000000000000000000000000000000000000000000000000000000000000000000000000000000000000000000000000000000000000000000000000000000000000000000000000000000000000000000000000000
310
000000000000000000000000000000000000000000000000000000000000000000000000000000000000000000000000F5000000000000000000000000000000000000000000000000000000000000000000000000000000000000000000000000000000000000000000000000000000000000000000000000000000000000
310
00000000000000000000000000000000000000000000000000F50000000000000000000000000000000000000000000000000000000000000000000000000000000000000000000000000000000000000000000000000000000000000000000000000000000000000000000000000000000000000000000000000000000000
310
0000000000000000000000000000000000000000000000000000000000000000000000000000000000000000000000000000F5F5F5F5F5F5F5F5F5F5F5F5F5F5F5F5F5F5F5F5F5F5F5F5F5F5F5F5F5F5F5F5F5F5F5F5F5F5F5F5F5F5F5F5F5F5F5F5F5F5F5F5F5F5F5F5F5F5F5F5F5F5F5F5F5F5F5F5F5F5F5F5F5F5F5F5F5
310
F5F5F5F5F5F5F5F5F5F5F5F5F5F5F5F5F5F5F5F5F5F5F5F5F5F5F5F5000000000000000000000000000000000000000000000000000000000000000000000000000000000000000000000000000000000000000000000000000000000000000000000000000000000000000000000000000000000000000000000000000000
310
00000000000000000000000000000000000000000000000000000000000000000000000000000000000000000000000000000000000000000000000000000000000000000000000000000000000000000000000000000000000000000000000000000000000000000000000000000000000000000000000000000000000000
310
00000000000000000000000000000000000000000000000000000000000000000000000000000000000000000000000000000000000000000000000000000000000000000000000000000000000000000000000000000000000000000000000000000000000000000000000000000000000000000000000000000000000000
310
00000000000000000000000000000000000000000000000000000000000000000000000000000000000000000000000000000000000000000000000000000000000000000000000000000000000000000000000000000000000000000000000000000000000000000000000000000000000000000000000000000000000000
310
00000000000000000000000000000000000000000000000000000000000000000000000000000000000000000000000000000000000000000000000000000000000000000000000000000000000000000000000000000000000000000000000000000000000000000000000000000000000000000000000000000000000000
310
00000000000000000000000000000000000000000000000000000000000000000000
  0
XRECORD
  5
59AB
102
{ACAD_REACTORS
330
23E
102
}
330
23E
100
AcDbXrecord
280
     1
102
MATERIAL
148
0.0
149
0.0
149
0.0
 93
        0
 94
      127
282
     0
 72
     0
 77
     0
171
     0
175
     0
179
     0
273
     0
  0
XRECORD
  5
240
102
{ACAD_REACTORS
330
23E
102
}
330
23E
100
AcDbXrecord
280
     1
270
     1
271
     1
  0
XRECORD
  5
23F
102
{ACAD_REACTORS
330
23E
102
}
330
23E
100
AcDbXrecord
280
     1
270
     1
271
     1
  0
XRECORD
  5
243
102
{ACAD_REACTORS
330
23E
102
}
330
23E
100
AcDbXrecord
280
     1
270
     1
271
     1
  0
XRECORD
  5
242
102
{ACAD_REACTORS
330
23E
102
}
330
23E
100
AcDbXrecord
280
     1
270
     1
271
     1
  0
XRECORD
  5
244
102
{ACAD_REACTORS
330
23E
102
}
330
23E
100
AcDbXrecord
280
     1
270
     1
271
     1
  0
XRECORD
  5
241
102
{ACAD_REACTORS
330
23E
102
}
330
23E
100
AcDbXrecord
280
     1
270
     1
271
     1
  0
XRECORD
  5
59AA
102
{ACAD_REACTORS
330
236
102
}
330
236
100
AcDbXrecord
280
     1
102
MATERIAL
148
0.0
149
0.0
149
0.0
 93
        0
 94
      127
282
     0
 72
     0
 77
     0
171
     0
175
     0
179
     0
273
     0
  0
XRECORD
  5
238
102
{ACAD_REACTORS
330
236
102
}
330
236
100
AcDbXrecord
280
     1
270
     1
271
     1
  0
XRECORD
  5
237
102
{ACAD_REACTORS
330
236
102
}
330
236
100
AcDbXrecord
280
     1
270
     1
271
     1
  0
XRECORD
  5
23B
102
{ACAD_REACTORS
330
236
102
}
330
236
100
AcDbXrecord
280
     1
270
     1
271
     1
  0
XRECORD
  5
23A
102
{ACAD_REACTORS
330
236
102
}
330
236
100
AcDbXrecord
280
     1
270
     1
271
     1
  0
XRECORD
  5
23C
102
{ACAD_REACTORS
330
236
102
}
330
236
100
AcDbXrecord
280
     1
270
     1
271
     1
  0
XRECORD
  5
239
102
{ACAD_REACTORS
330
236
102
}
330
236
100
AcDbXrecord
280
     1
270
     1
271
     1
  0
XRECORD
  5
59AC
102
{ACAD_REACTORS
330
246
102
}
330
246
100
AcDbXrecord
280
     1
102
MATERIAL
148
0.0
149
0.0
149
0.0
 93
        0
 94
      127
282
     0
 72
     0
 77
     0
171
     0
175
     0
179
     0
273
     0
  0
XRECORD
  5
248
102
{ACAD_REACTORS
330
246
102
}
330
246
100
AcDbXrecord
280
     1
270
     1
271
     1
  0
XRECORD
  5
247
102
{ACAD_REACTORS
330
246
102
}
330
246
100
AcDbXrecord
280
     1
270
     1
271
     1
  0
XRECORD
  5
24B
102
{ACAD_REACTORS
330
246
102
}
330
246
100
AcDbXrecord
280
     1
270
     1
271
     1
  0
XRECORD
  5
24A
102
{ACAD_REACTORS
330
246
102
}
330
246
100
AcDbXrecord
280
     1
270
     1
271
     1
  0
XRECORD
  5
24C
102
{ACAD_REACTORS
330
246
102
}
330
246
100
AcDbXrecord
280
     1
270
     1
271
     1
  0
XRECORD
  5
249
102
{ACAD_REACTORS
330
246
102
}
330
246
100
AcDbXrecord
280
     1
270
     1
271
     1
  0
XRECORD
  5
5B27
102
{ACAD_REACTORS
330
5B26
102
}
330
5B26
100
AcDbXrecord
280
     1
102
DISPLAYNAME
  1
Imperial24
102
FLAGS
 90
        0
  0
CELLSTYLEMAP
  5
5AEB
102
{ACAD_REACTORS
330
2A0
102
}
330
2A0
100
AcDbCellStyleMap
 90
        3
300
CELLSTYLE
  1
TABLEFORMAT_BEGIN
 90
        5
170
     1
 91
        0
 92
    32768
 62
   257
 93
        1
300
CONTENTFORMAT
  1
CONTENTFORMAT_BEGIN
 90
        0
 91
        0
 92
        4
 93
        0
300

 40
0.0
140
1.0
 94
        5
 62
     0
340
1B
144
0.25
309
CONTENTFORMAT_END
171
     1
301
MARGIN
  1
CELLMARGIN_BEGIN
 40
0.06
 40
0.06
 40
0.06
 40
0.06
 40
0.18
 40
0.18
309
CELLMARGIN_END
 94
        6
 95
        1
302
GRIDFORMAT
  1
GRIDFORMAT_BEGIN
 90
        0
 91
        1
 62
     0
 92
       -2
340
0
 93
        0
 40
0.045
309
GRIDFORMAT_END
 95
        2
302
GRIDFORMAT
  1
GRIDFORMAT_BEGIN
 90
        0
 91
        1
 62
     0
 92
       -2
340
0
 93
        0
 40
0.045
309
GRIDFORMAT_END
 95
        4
302
GRIDFORMAT
  1
GRIDFORMAT_BEGIN
 90
        0
 91
        1
 62
     0
 92
       -2
340
0
 93
        0
 40
0.045
309
GRIDFORMAT_END
 95
        8
302
GRIDFORMAT
  1
GRIDFORMAT_BEGIN
 90
        0
 91
        1
 62
     0
 92
       -2
340
0
 93
        0
 40
0.045
309
GRIDFORMAT_END
 95
       16
302
GRIDFORMAT
  1
GRIDFORMAT_BEGIN
 90
        0
 91
        1
 62
     0
 92
       -2
340
0
 93
        0
 40
0.045
309
GRIDFORMAT_END
 95
       32
302
GRIDFORMAT
  1
GRIDFORMAT_BEGIN
 90
        0
 91
        1
 62
     0
 92
       -2
340
0
 93
        0
 40
0.045
309
GRIDFORMAT_END
309
TABLEFORMAT_END
  1
CELLSTYLE_BEGIN
 90
        1
 91
        1
300
_TITLE
309
CELLSTYLE_END
300
CELLSTYLE
  1
TABLEFORMAT_BEGIN
 90
        5
170
     1
 91
        0
 92
        0
 62
   257
 93
        1
300
CONTENTFORMAT
  1
CONTENTFORMAT_BEGIN
 90
        0
 91
        0
 92
        4
 93
        0
300

 40
0.0
140
1.0
 94
        5
 62
     0
340
1B
144
0.18
309
CONTENTFORMAT_END
171
     1
301
MARGIN
  1
CELLMARGIN_BEGIN
 40
0.06
 40
0.06
 40
0.06
 40
0.06
 40
0.18
 40
0.18
309
CELLMARGIN_END
 94
        6
 95
        1
302
GRIDFORMAT
  1
GRIDFORMAT_BEGIN
 90
        0
 91
        1
 62
     0
 92
       -2
340
0
 93
        0
 40
0.045
309
GRIDFORMAT_END
 95
        2
302
GRIDFORMAT
  1
GRIDFORMAT_BEGIN
 90
        0
 91
        1
 62
     0
 92
       -2
340
0
 93
        0
 40
0.045
309
GRIDFORMAT_END
 95
        4
302
GRIDFORMAT
  1
GRIDFORMAT_BEGIN
 90
        0
 91
        1
 62
     0
 92
       -2
340
0
 93
        0
 40
0.045
309
GRIDFORMAT_END
 95
        8
302
GRIDFORMAT
  1
GRIDFORMAT_BEGIN
 90
        0
 91
        1
 62
     0
 92
       -2
340
0
 93
        0
 40
0.045
309
GRIDFORMAT_END
 95
       16
302
GRIDFORMAT
  1
GRIDFORMAT_BEGIN
 90
        0
 91
        1
 62
     0
 92
       -2
340
0
 93
        0
 40
0.045
309
GRIDFORMAT_END
 95
       32
302
GRIDFORMAT
  1
GRIDFORMAT_BEGIN
 90
        0
 91
        1
 62
     0
 92
       -2
340
0
 93
        0
 40
0.045
309
GRIDFORMAT_END
309
TABLEFORMAT_END
  1
CELLSTYLE_BEGIN
 90
        2
 91
        1
300
_HEADER
309
CELLSTYLE_END
300
CELLSTYLE
  1
TABLEFORMAT_BEGIN
 90
        5
170
     1
 91
        0
 92
        0
 62
   257
 93
        1
300
CONTENTFORMAT
  1
CONTENTFORMAT_BEGIN
 90
        0
 91
        0
 92
        4
 93
        0
300

 40
0.0
140
1.0
 94
        2
 62
     0
340
1B
144
0.18
309
CONTENTFORMAT_END
171
     1
301
MARGIN
  1
CELLMARGIN_BEGIN
 40
0.06
 40
0.06
 40
0.06
 40
0.06
 40
0.18
 40
0.18
309
CELLMARGIN_END
 94
        6
 95
        1
302
GRIDFORMAT
  1
GRIDFORMAT_BEGIN
 90
        0
 91
        1
 62
     0
 92
       -2
340
0
 93
        0
 40
0.045
309
GRIDFORMAT_END
 95
        2
302
GRIDFORMAT
  1
GRIDFORMAT_BEGIN
 90
        0
 91
        1
 62
     0
 92
       -2
340
0
 93
        0
 40
0.045
309
GRIDFORMAT_END
 95
        4
302
GRIDFORMAT
  1
GRIDFORMAT_BEGIN
 90
        0
 91
        1
 62
     0
 92
       -2
340
0
 93
        0
 40
0.045
309
GRIDFORMAT_END
 95
        8
302
GRIDFORMAT
  1
GRIDFORMAT_BEGIN
 90
        0
 91
        1
 62
     0
 92
       -2
340
0
 93
        0
 40
0.045
309
GRIDFORMAT_END
 95
       16
302
GRIDFORMAT
  1
GRIDFORMAT_BEGIN
 90
        0
 91
        1
 62
     0
 92
       -2
340
0
 93
        0
 40
0.045
309
GRIDFORMAT_END
 95
       32
302
GRIDFORMAT
  1
GRIDFORMAT_BEGIN
 90
        0
 91
        1
 62
     0
 92
       -2
340
0
 93
        0
 40
0.045
309
GRIDFORMAT_END
309
TABLEFORMAT_END
  1
CELLSTYLE_BEGIN
 90
        3
 91
        2
300
_DATA
309
CELLSTYLE_END
  0
XRECORD
  5
5AF1
102
{ACAD_REACTORS
330
2A0
102
}
330
2A0
100
AcDbXrecord
280
     1
102
ACAD_ROUNDTRIP_PRE2007_TABLESTYLE
 90
        4
 91
        0
  1

 92
        4
 93
        0
  2

 94
        4
 95
        0
  3

  0
XRECORD
  5
5AFD
102
{ACAD_REACTORS
330
5AFC
102
}
330
5AFC
100
AcDbXrecord
280
     1
102
RTVSPost2010Prop28
280
     1
102
RTVSPost2010PropOp28
 70
     1
102
RTVSPost2010Prop29
280
     1
102
RTVSPost2010PropOp29
 70
     1
102
RTVSPost2010Prop30
280
     0
102
RTVSPost2010PropOp30
 70
     1
102
RTVSPost2010Prop31
280
     0
102
RTVSPost2010PropOp31
 70
     1
102
RTVSPost2010Prop32
280
     0
102
RTVSPost2010PropOp32
 70
     1
102
RTVSPost2010Prop33
280
     0
102
RTVSPost2010PropOp33
 70
     1
102
RTVSPost2010Prop34
280
     0
102
RTVSPost2010PropOp34
 70
     1
102
RTVSPost2010Prop35
280
     0
102
RTVSPost2010PropOp35
 70
     1
102
RTVSPost2010Prop36
280
     0
102
RTVSPost2010PropOp36
 70
     1
102
RTVSPost2010Prop37
 90
       50
102
RTVSPost2010PropOp37
 70
     1
102
RTVSPost2010Prop38
140
0.0
102
RTVSPost2010PropOp38
 70
     1
102
RTVSPost2010Prop39
140
1.0
102
RTVSPost2010PropOp39
 70
     1
102
RTVSPost2010Prop40
 90
        0
102
RTVSPost2010PropOp40
 70
     1
102
RTVSPost2010Prop41ColorIndex
 90
       18
102
RTVSPost2010Prop41ColorRGB
 90
        0
102
RTVSPost2010PropOp41
 70
     1
102
RTVSPost2010Prop42
 90
       50
102
RTVSPost2010PropOp42
 70
     1
102
RTVSPost2010Prop43
 90
        3
102
RTVSPost2010PropOp43
 70
     1
102
RTVSPost2010Prop44ColorIndex
 90
        5
102
RTVSPost2010Prop44ColorRGB
 90
      255
102
RTVSPost2010PropOp44
 70
     1
102
RTVSPost2010Prop45
280
     0
102
RTVSPost2010PropOp45
 70
     1
102
RTVSPost2010Prop46
 90
       50
102
RTVSPost2010PropOp46
 70
     1
102
RTVSPost2010Prop47
 90
       50
102
RTVSPost2010PropOp47
 70
     1
102
RTVSPost2010Prop48
 90
       50
102
RTVSPost2010PropOp48
 70
     1
102
RTVSPost2010Prop49
280
     0
102
RTVSPost2010PropOp49
 70
     1
102
RTVSPost2010Prop50
 90
       50
102
RTVSPost2010PropOp50
 70
     1
102
RTVSPost2010Prop51ColorIndex
 90
      256
102
RTVSPost2010Prop51ColorRGB
 90
-16777216
102
RTVSPost2010PropOp51
 70
     0
102
RTVSPost2010Prop52
140
1.0
102
RTVSPost2010PropOp52
 70
     0
102
RTVSPost2010Prop53
 90
        2
102
RTVSPost2010PropOp53
 70
     1
102
RTVSPost2010Prop54
  1
strokes_ogs.tif
102
RTVSPost2010PropOp54
 70
     1
102
RTVSPost2010Prop55
280
     0
102
RTVSPost2010PropOp55
 70
     1
102
RTVSPost2010Prop56
140
1.0
102
RTVSPost2010PropOp56
 70
     1
102
RTVSPost2010Prop57
140
1.0
102
RTVSPost2010PropOp57
 70
     1
102
RTVSPropertyOp0
 70
     1
102
RTVSPropertyOp1
 70
     1
102
RTVSPropertyOp2
 70
     1
102
RTVSPropertyOp3
 70
     1
102
RTVSPropertyOp4
 70
     1
102
RTVSPropertyOp5
 70
     1
102
RTVSPropertyOp6
 70
     1
102
RTVSPropertyOp7
 70
     1
102
RTVSPropertyOp8
 70
     1
102
RTVSPropertyOp9
 70
     1
102
RTVSPropertyOp10
 70
     1
102
RTVSPropertyOp11
 70
     1
102
RTVSPropertyOp12
 70
     1
102
RTVSPropertyOp13
 70
     1
102
RTVSPropertyOp14
 70
     1
102
RTVSPropertyOp15
 70
     1
102
RTVSPropertyOp16
 70
     1
102
RTVSPropertyOp17
 70
     1
102
RTVSPropertyOp18
 70
     1
102
RTVSPropertyOp19
 70
     1
102
RTVSPropertyOp20
 70
     1
102
RTVSPropertyOp21
 70
     1
102
RTVSPropertyOp22
 70
     1
102
RTVSPropertyOp23
 70
     1
102
RTVSPropertyOp24
 70
     1
102
RTVSPropertyOp25
 70
     1
102
RTVSPropertyOp26
 70
     1
102
RTVSPropertyOp27
 70
     1
102
RTVSPropertyOp28
 70
     1
102
RTVSPropertyOp29
 70
     1
102
RTVSPropertyOp30
 70
     1
102
RTVSPropertyOp31
 70
     1
102
RTVSPropertyOp32
 70
     1
102
RTVSPropertyOp33
 70
     1
102
RTVSPropertyOp34
 70
     1
102
RTVSPropertyOp35
 70
     1
102
RTVSPropertyOp36
 70
     1
102
RTVSPropertyOp37
 70
     1
102
RTVSPropertyOp38
 70
     1
102
RTVSPropertyOp39
 70
     1
102
RTVSPropertyOp40
 70
     1
102
RTVSPropertyOp41
 70
     1
102
RTVSPropertyOp42
 70
     1
102
RTVSPropertyOp43
 70
     1
102
RTVSPropertyOp44
 70
     1
102
RTVSPropertyOp45
 70
     1
102
RTVSPropertyOp46
 70
     1
102
RTVSPropertyOp47
 70
     1
102
RTVSPropertyOp48
 70
     1
102
RTVSPropertyOp49
 70
     1
102
RTVSPropertyOp50
 70
     1
102
RTVSPropertyOp51
 70
     0
102
RTVSPropertyOp52
 70
     0
102
RTVSPropertyOp53
 70
     1
102
RTVSPropertyOp54
 70
     1
102
RTVSPropertyOp55
 70
     1
102
RTVSPropertyOp56
 70
     1
102
RTVSPropertyOp57
 70
     1
102
RTVSPropertyOp58
 70
     1
102
RTVSPropertyOp59
 70
     1
102
RTVSPropertyOp60
 70
     1
102
RTVSPropertyOp61
 70
     1
102
RTVSPropertyOp62
 70
     1
  0
XRECORD
  5
5B01
102
{ACAD_REACTORS
330
5B00
102
}
330
5B00
100
AcDbXrecord
280
     1
102
RTVSPost2010Prop28
280
     0
102
RTVSPost2010PropOp28
 70
     1
102
RTVSPost2010Prop29
280
     1
102
RTVSPost2010PropOp29
 70
     1
102
RTVSPost2010Prop30
280
     1
102
RTVSPost2010PropOp30
 70
     1
102
RTVSPost2010Prop31
280
     0
102
RTVSPost2010PropOp31
 70
     1
102
RTVSPost2010Prop32
280
     0
102
RTVSPost2010PropOp32
 70
     1
102
RTVSPost2010Prop33
280
     0
102
RTVSPost2010PropOp33
 70
     1
102
RTVSPost2010Prop34
280
     0
102
RTVSPost2010PropOp34
 70
     1
102
RTVSPost2010Prop35
280
     0
102
RTVSPost2010PropOp35
 70
     1
102
RTVSPost2010Prop36
280
     0
102
RTVSPost2010PropOp36
 70
     1
102
RTVSPost2010Prop37
 90
       50
102
RTVSPost2010PropOp37
 70
     1
102
RTVSPost2010Prop38
140
0.0
102
RTVSPost2010PropOp38
 70
     1
102
RTVSPost2010Prop39
140
1.0
102
RTVSPost2010PropOp39
 70
     1
102
RTVSPost2010Prop40
 90
        0
102
RTVSPost2010PropOp40
 70
     1
102
RTVSPost2010Prop41ColorIndex
 90
       18
102
RTVSPost2010Prop41ColorRGB
 90
        0
102
RTVSPost2010PropOp41
 70
     1
102
RTVSPost2010Prop42
 90
       50
102
RTVSPost2010PropOp42
 70
     1
102
RTVSPost2010Prop43
 90
        3
102
RTVSPost2010PropOp43
 70
     1
102
RTVSPost2010Prop44ColorIndex
 90
        5
102
RTVSPost2010Prop44ColorRGB
 90
      255
102
RTVSPost2010PropOp44
 70
     1
102
RTVSPost2010Prop45
280
     0
102
RTVSPost2010PropOp45
 70
     1
102
RTVSPost2010Prop46
 90
       50
102
RTVSPost2010PropOp46
 70
     1
102
RTVSPost2010Prop47
 90
       50
102
RTVSPost2010PropOp47
 70
     1
102
RTVSPost2010Prop48
 90
       50
102
RTVSPost2010PropOp48
 70
     1
102
RTVSPost2010Prop49
280
     0
102
RTVSPost2010PropOp49
 70
     1
102
RTVSPost2010Prop50
 90
       50
102
RTVSPost2010PropOp50
 70
     1
102
RTVSPost2010Prop51ColorIndex
 90
      256
102
RTVSPost2010Prop51ColorRGB
 90
-16777216
102
RTVSPost2010PropOp51
 70
     0
102
RTVSPost2010Prop52
140
1.0
102
RTVSPost2010PropOp52
 70
     0
102
RTVSPost2010Prop53
 90
        2
102
RTVSPost2010PropOp53
 70
     1
102
RTVSPost2010Prop54
  1
strokes_ogs.tif
102
RTVSPost2010PropOp54
 70
     1
102
RTVSPost2010Prop55
280
     0
102
RTVSPost2010PropOp55
 70
     1
102
RTVSPost2010Prop56
140
1.0
102
RTVSPost2010PropOp56
 70
     1
102
RTVSPost2010Prop57
140
1.0
102
RTVSPost2010PropOp57
 70
     1
102
RTVSPropertyOp0
 70
     1
102
RTVSPropertyOp1
 70
     1
102
RTVSPropertyOp2
 70
     1
102
RTVSPropertyOp3
 70
     1
102
RTVSPropertyOp4
 70
     1
102
RTVSPropertyOp5
 70
     1
102
RTVSPropertyOp6
 70
     1
102
RTVSPropertyOp7
 70
     1
102
RTVSPropertyOp8
 70
     1
102
RTVSPropertyOp9
 70
     1
102
RTVSPropertyOp10
 70
     1
102
RTVSPropertyOp11
 70
     1
102
RTVSPropertyOp12
 70
     1
102
RTVSPropertyOp13
 70
     1
102
RTVSPropertyOp14
 70
     1
102
RTVSPropertyOp15
 70
     1
102
RTVSPropertyOp16
 70
     1
102
RTVSPropertyOp17
 70
     1
102
RTVSPropertyOp18
 70
     1
102
RTVSPropertyOp19
 70
     1
102
RTVSPropertyOp20
 70
     1
102
RTVSPropertyOp21
 70
     1
102
RTVSPropertyOp22
 70
     1
102
RTVSPropertyOp23
 70
     1
102
RTVSPropertyOp24
 70
     1
102
RTVSPropertyOp25
 70
     1
102
RTVSPropertyOp26
 70
     1
102
RTVSPropertyOp27
 70
     1
102
RTVSPropertyOp28
 70
     1
102
RTVSPropertyOp29
 70
     1
102
RTVSPropertyOp30
 70
     1
102
RTVSPropertyOp31
 70
     1
102
RTVSPropertyOp32
 70
     1
102
RTVSPropertyOp33
 70
     1
102
RTVSPropertyOp34
 70
     1
102
RTVSPropertyOp35
 70
     1
102
RTVSPropertyOp36
 70
     1
102
RTVSPropertyOp37
 70
     1
102
RTVSPropertyOp38
 70
     1
102
RTVSPropertyOp39
 70
     1
102
RTVSPropertyOp40
 70
     1
102
RTVSPropertyOp41
 70
     1
102
RTVSPropertyOp42
 70
     1
102
RTVSPropertyOp43
 70
     1
102
RTVSPropertyOp44
 70
     1
102
RTVSPropertyOp45
 70
     1
102
RTVSPropertyOp46
 70
     1
102
RTVSPropertyOp47
 70
     1
102
RTVSPropertyOp48
 70
     1
102
RTVSPropertyOp49
 70
     1
102
RTVSPropertyOp50
 70
     1
102
RTVSPropertyOp51
 70
     0
102
RTVSPropertyOp52
 70
     0
102
RTVSPropertyOp53
 70
     1
102
RTVSPropertyOp54
 70
     1
102
RTVSPropertyOp55
 70
     1
102
RTVSPropertyOp56
 70
     1
102
RTVSPropertyOp57
 70
     1
102
RTVSPropertyOp58
 70
     1
102
RTVSPropertyOp59
 70
     1
102
RTVSPropertyOp60
 70
     1
102
RTVSPropertyOp61
 70
     1
102
RTVSPropertyOp62
 70
     1
  0
XRECORD
  5
5AFF
102
{ACAD_REACTORS
330
5AFE
102
}
330
5AFE
100
AcDbXrecord
280
     1
102
RTVSPost2010Prop28
280
     0
102
RTVSPost2010PropOp28
 70
     1
102
RTVSPost2010Prop29
280
     1
102
RTVSPost2010PropOp29
 70
     1
102
RTVSPost2010Prop30
280
     1
102
RTVSPost2010PropOp30
 70
     1
102
RTVSPost2010Prop31
280
     0
102
RTVSPost2010PropOp31
 70
     1
102
RTVSPost2010Prop32
280
     0
102
RTVSPost2010PropOp32
 70
     1
102
RTVSPost2010Prop33
280
     0
102
RTVSPost2010PropOp33
 70
     1
102
RTVSPost2010Prop34
280
     0
102
RTVSPost2010PropOp34
 70
     1
102
RTVSPost2010Prop35
280
     0
102
RTVSPost2010PropOp35
 70
     1
102
RTVSPost2010Prop36
280
     0
102
RTVSPost2010PropOp36
 70
     1
102
RTVSPost2010Prop37
 90
       50
102
RTVSPost2010PropOp37
 70
     1
102
RTVSPost2010Prop38
140
0.0
102
RTVSPost2010PropOp38
 70
     1
102
RTVSPost2010Prop39
140
1.0
102
RTVSPost2010PropOp39
 70
     1
102
RTVSPost2010Prop40
 90
        0
102
RTVSPost2010PropOp40
 70
     1
102
RTVSPost2010Prop41ColorIndex
 90
       18
102
RTVSPost2010Prop41ColorRGB
 90
        0
102
RTVSPost2010PropOp41
 70
     1
102
RTVSPost2010Prop42
 90
       50
102
RTVSPost2010PropOp42
 70
     1
102
RTVSPost2010Prop43
 90
        3
102
RTVSPost2010PropOp43
 70
     1
102
RTVSPost2010Prop44ColorIndex
 90
        5
102
RTVSPost2010Prop44ColorRGB
 90
      255
102
RTVSPost2010PropOp44
 70
     1
102
RTVSPost2010Prop45
280
     0
102
RTVSPost2010PropOp45
 70
     1
102
RTVSPost2010Prop46
 90
       50
102
RTVSPost2010PropOp46
 70
     1
102
RTVSPost2010Prop47
 90
       50
102
RTVSPost2010PropOp47
 70
     1
102
RTVSPost2010Prop48
 90
       50
102
RTVSPost2010PropOp48
 70
     1
102
RTVSPost2010Prop49
280
     0
102
RTVSPost2010PropOp49
 70
     1
102
RTVSPost2010Prop50
 90
       50
102
RTVSPost2010PropOp50
 70
     1
102
RTVSPost2010Prop51ColorIndex
 90
      256
102
RTVSPost2010Prop51ColorRGB
 90
-16777216
102
RTVSPost2010PropOp51
 70
     0
102
RTVSPost2010Prop52
140
1.0
102
RTVSPost2010PropOp52
 70
     0
102
RTVSPost2010Prop53
 90
        2
102
RTVSPost2010PropOp53
 70
     1
102
RTVSPost2010Prop54
  1
strokes_ogs.tif
102
RTVSPost2010PropOp54
 70
     1
102
RTVSPost2010Prop55
280
     0
102
RTVSPost2010PropOp55
 70
     1
102
RTVSPost2010Prop56
140
1.0
102
RTVSPost2010PropOp56
 70
     1
102
RTVSPost2010Prop57
140
1.0
102
RTVSPost2010PropOp57
 70
     1
102
RTVSPropertyOp0
 70
     1
102
RTVSPropertyOp1
 70
     1
102
RTVSPropertyOp2
 70
     1
102
RTVSPropertyOp3
 70
     1
102
RTVSPropertyOp4
 70
     1
102
RTVSPropertyOp5
 70
     1
102
RTVSPropertyOp6
 70
     1
102
RTVSPropertyOp7
 70
     1
102
RTVSPropertyOp8
 70
     1
102
RTVSPropertyOp9
 70
     1
102
RTVSPropertyOp10
 70
     1
102
RTVSPropertyOp11
 70
     1
102
RTVSPropertyOp12
 70
     1
102
RTVSPropertyOp13
 70
     1
102
RTVSPropertyOp14
 70
     1
102
RTVSPropertyOp15
 70
     1
102
RTVSPropertyOp16
 70
     1
102
RTVSPropertyOp17
 70
     1
102
RTVSPropertyOp18
 70
     1
102
RTVSPropertyOp19
 70
     1
102
RTVSPropertyOp20
 70
     1
102
RTVSPropertyOp21
 70
     1
102
RTVSPropertyOp22
 70
     1
102
RTVSPropertyOp23
 70
     1
102
RTVSPropertyOp24
 70
     1
102
RTVSPropertyOp25
 70
     1
102
RTVSPropertyOp26
 70
     1
102
RTVSPropertyOp27
 70
     1
102
RTVSPropertyOp28
 70
     1
102
RTVSPropertyOp29
 70
     1
102
RTVSPropertyOp30
 70
     1
102
RTVSPropertyOp31
 70
     1
102
RTVSPropertyOp32
 70
     1
102
RTVSPropertyOp33
 70
     1
102
RTVSPropertyOp34
 70
     1
102
RTVSPropertyOp35
 70
     1
102
RTVSPropertyOp36
 70
     1
102
RTVSPropertyOp37
 70
     1
102
RTVSPropertyOp38
 70
     1
102
RTVSPropertyOp39
 70
     1
102
RTVSPropertyOp40
 70
     1
102
RTVSPropertyOp41
 70
     1
102
RTVSPropertyOp42
 70
     1
102
RTVSPropertyOp43
 70
     1
102
RTVSPropertyOp44
 70
     1
102
RTVSPropertyOp45
 70
     1
102
RTVSPropertyOp46
 70
     1
102
RTVSPropertyOp47
 70
     1
102
RTVSPropertyOp48
 70
     1
102
RTVSPropertyOp49
 70
     1
102
RTVSPropertyOp50
 70
     1
102
RTVSPropertyOp51
 70
     0
102
RTVSPropertyOp52
 70
     0
102
RTVSPropertyOp53
 70
     1
102
RTVSPropertyOp54
 70
     1
102
RTVSPropertyOp55
 70
     1
102
RTVSPropertyOp56
 70
     1
102
RTVSPropertyOp57
 70
     1
102
RTVSPropertyOp58
 70
     1
102
RTVSPropertyOp59
 70
     1
102
RTVSPropertyOp60
 70
     1
102
RTVSPropertyOp61
 70
     1
102
RTVSPropertyOp62
 70
     1
  0
XRECORD
  5
5AFB
102
{ACAD_REACTORS
330
5AFA
102
}
330
5AFA
100
AcDbXrecord
280
     1
102
RTVSPost2010Prop28
280
     0
102
RTVSPost2010PropOp28
 70
     1
102
RTVSPost2010Prop29
280
     1
102
RTVSPost2010PropOp29
 70
     1
102
RTVSPost2010Prop30
280
     1
102
RTVSPost2010PropOp30
 70
     1
102
RTVSPost2010Prop31
280
     0
102
RTVSPost2010PropOp31
 70
     1
102
RTVSPost2010Prop32
280
     0
102
RTVSPost2010PropOp32
 70
     1
102
RTVSPost2010Prop33
280
     0
102
RTVSPost2010PropOp33
 70
     1
102
RTVSPost2010Prop34
280
     0
102
RTVSPost2010PropOp34
 70
     1
102
RTVSPost2010Prop35
280
     0
102
RTVSPost2010PropOp35
 70
     1
102
RTVSPost2010Prop36
280
     0
102
RTVSPost2010PropOp36
 70
     1
102
RTVSPost2010Prop37
 90
       50
102
RTVSPost2010PropOp37
 70
     1
102
RTVSPost2010Prop38
140
0.0
102
RTVSPost2010PropOp38
 70
     1
102
RTVSPost2010Prop39
140
1.0
102
RTVSPost2010PropOp39
 70
     1
102
RTVSPost2010Prop40
 90
        0
102
RTVSPost2010PropOp40
 70
     1
102
RTVSPost2010Prop41ColorIndex
 90
       18
102
RTVSPost2010Prop41ColorRGB
 90
        0
102
RTVSPost2010PropOp41
 70
     1
102
RTVSPost2010Prop42
 90
       50
102
RTVSPost2010PropOp42
 70
     1
102
RTVSPost2010Prop43
 90
        3
102
RTVSPost2010PropOp43
 70
     1
102
RTVSPost2010Prop44ColorIndex
 90
        5
102
RTVSPost2010Prop44ColorRGB
 90
      255
102
RTVSPost2010PropOp44
 70
     1
102
RTVSPost2010Prop45
280
     0
102
RTVSPost2010PropOp45
 70
     1
102
RTVSPost2010Prop46
 90
       50
102
RTVSPost2010PropOp46
 70
     1
102
RTVSPost2010Prop47
 90
       50
102
RTVSPost2010PropOp47
 70
     1
102
RTVSPost2010Prop48
 90
       50
102
RTVSPost2010PropOp48
 70
     1
102
RTVSPost2010Prop49
280
     0
102
RTVSPost2010PropOp49
 70
     1
102
RTVSPost2010Prop50
 90
       50
102
RTVSPost2010PropOp50
 70
     1
102
RTVSPost2010Prop51ColorIndex
 90
      256
102
RTVSPost2010Prop51ColorRGB
 90
-16777216
102
RTVSPost2010PropOp51
 70
     0
102
RTVSPost2010Prop52
140
1.0
102
RTVSPost2010PropOp52
 70
     0
102
RTVSPost2010Prop53
 90
        2
102
RTVSPost2010PropOp53
 70
     1
102
RTVSPost2010Prop54
  1
strokes_ogs.tif
102
RTVSPost2010PropOp54
 70
     1
102
RTVSPost2010Prop55
280
     0
102
RTVSPost2010PropOp55
 70
     1
102
RTVSPost2010Prop56
140
1.0
102
RTVSPost2010PropOp56
 70
     1
102
RTVSPost2010Prop57
140
1.0
102
RTVSPost2010PropOp57
 70
     1
102
RTVSPropertyOp0
 70
     1
102
RTVSPropertyOp1
 70
     1
102
RTVSPropertyOp2
 70
     1
102
RTVSPropertyOp3
 70
     1
102
RTVSPropertyOp4
 70
     1
102
RTVSPropertyOp5
 70
     1
102
RTVSPropertyOp6
 70
     1
102
RTVSPropertyOp7
 70
     1
102
RTVSPropertyOp8
 70
     1
102
RTVSPropertyOp9
 70
     1
102
RTVSPropertyOp10
 70
     1
102
RTVSPropertyOp11
 70
     1
102
RTVSPropertyOp12
 70
     1
102
RTVSPropertyOp13
 70
     1
102
RTVSPropertyOp14
 70
     1
102
RTVSPropertyOp15
 70
     1
102
RTVSPropertyOp16
 70
     1
102
RTVSPropertyOp17
 70
     1
102
RTVSPropertyOp18
 70
     1
102
RTVSPropertyOp19
 70
     1
102
RTVSPropertyOp20
 70
     1
102
RTVSPropertyOp21
 70
     1
102
RTVSPropertyOp22
 70
     1
102
RTVSPropertyOp23
 70
     1
102
RTVSPropertyOp24
 70
     1
102
RTVSPropertyOp25
 70
     1
102
RTVSPropertyOp26
 70
     1
102
RTVSPropertyOp27
 70
     1
102
RTVSPropertyOp28
 70
     1
102
RTVSPropertyOp29
 70
     1
102
RTVSPropertyOp30
 70
     1
102
RTVSPropertyOp31
 70
     1
102
RTVSPropertyOp32
 70
     1
102
RTVSPropertyOp33
 70
     1
102
RTVSPropertyOp34
 70
     1
102
RTVSPropertyOp35
 70
     1
102
RTVSPropertyOp36
 70
     1
102
RTVSPropertyOp37
 70
     1
102
RTVSPropertyOp38
 70
     1
102
RTVSPropertyOp39
 70
     1
102
RTVSPropertyOp40
 70
     1
102
RTVSPropertyOp41
 70
     1
102
RTVSPropertyOp42
 70
     1
102
RTVSPropertyOp43
 70
     1
102
RTVSPropertyOp44
 70
     1
102
RTVSPropertyOp45
 70
     1
102
RTVSPropertyOp46
 70
     1
102
RTVSPropertyOp47
 70
     1
102
RTVSPropertyOp48
 70
     1
102
RTVSPropertyOp49
 70
     1
102
RTVSPropertyOp50
 70
     1
102
RTVSPropertyOp51
 70
     0
102
RTVSPropertyOp52
 70
     0
102
RTVSPropertyOp53
 70
     1
102
RTVSPropertyOp54
 70
     1
102
RTVSPropertyOp55
 70
     1
102
RTVSPropertyOp56
 70
     1
102
RTVSPropertyOp57
 70
     1
102
RTVSPropertyOp58
 70
     1
102
RTVSPropertyOp59
 70
     1
102
RTVSPropertyOp60
 70
     1
102
RTVSPropertyOp61
 70
     1
102
RTVSPropertyOp62
 70
     1
  0
XRECORD
  5
5B09
102
{ACAD_REACTORS
330
5B08
102
}
330
5B08
100
AcDbXrecord
280
     1
102
RTVSPost2010Prop28
280
     0
102
RTVSPost2010PropOp28
 70
     1
102
RTVSPost2010Prop29
280
     1
102
RTVSPost2010PropOp29
 70
     1
102
RTVSPost2010Prop30
280
     1
102
RTVSPost2010PropOp30
 70
     1
102
RTVSPost2010Prop31
280
     0
102
RTVSPost2010PropOp31
 70
     1
102
RTVSPost2010Prop32
280
     0
102
RTVSPost2010PropOp32
 70
     1
102
RTVSPost2010Prop33
280
     0
102
RTVSPost2010PropOp33
 70
     1
102
RTVSPost2010Prop34
280
     0
102
RTVSPost2010PropOp34
 70
     1
102
RTVSPost2010Prop35
280
     0
102
RTVSPost2010PropOp35
 70
     1
102
RTVSPost2010Prop36
280
     0
102
RTVSPost2010PropOp36
 70
     1
102
RTVSPost2010Prop37
 90
       50
102
RTVSPost2010PropOp37
 70
     1
102
RTVSPost2010Prop38
140
0.0
102
RTVSPost2010PropOp38
 70
     1
102
RTVSPost2010Prop39
140
1.0
102
RTVSPost2010PropOp39
 70
     1
102
RTVSPost2010Prop40
 90
        0
102
RTVSPost2010PropOp40
 70
     1
102
RTVSPost2010Prop41ColorIndex
 90
       18
102
RTVSPost2010Prop41ColorRGB
 90
        0
102
RTVSPost2010PropOp41
 70
     1
102
RTVSPost2010Prop42
 90
       50
102
RTVSPost2010PropOp42
 70
     1
102
RTVSPost2010Prop43
 90
        3
102
RTVSPost2010PropOp43
 70
     1
102
RTVSPost2010Prop44ColorIndex
 90
        5
102
RTVSPost2010Prop44ColorRGB
 90
      255
102
RTVSPost2010PropOp44
 70
     1
102
RTVSPost2010Prop45
280
     0
102
RTVSPost2010PropOp45
 70
     1
102
RTVSPost2010Prop46
 90
       50
102
RTVSPost2010PropOp46
 70
     1
102
RTVSPost2010Prop47
 90
       50
102
RTVSPost2010PropOp47
 70
     1
102
RTVSPost2010Prop48
 90
       50
102
RTVSPost2010PropOp48
 70
     1
102
RTVSPost2010Prop49
280
     0
102
RTVSPost2010PropOp49
 70
     1
102
RTVSPost2010Prop50
 90
       50
102
RTVSPost2010PropOp50
 70
     1
102
RTVSPost2010Prop51ColorIndex
 90
      256
102
RTVSPost2010Prop51ColorRGB
 90
-16777216
102
RTVSPost2010PropOp51
 70
     0
102
RTVSPost2010Prop52
140
1.0
102
RTVSPost2010PropOp52
 70
     0
102
RTVSPost2010Prop53
 90
        2
102
RTVSPost2010PropOp53
 70
     1
102
RTVSPost2010Prop54
  1
strokes_ogs.tif
102
RTVSPost2010PropOp54
 70
     1
102
RTVSPost2010Prop55
280
     0
102
RTVSPost2010PropOp55
 70
     1
102
RTVSPost2010Prop56
140
1.0
102
RTVSPost2010PropOp56
 70
     1
102
RTVSPost2010Prop57
140
1.0
102
RTVSPost2010PropOp57
 70
     1
102
RTVSPropertyOp0
 70
     1
102
RTVSPropertyOp1
 70
     1
102
RTVSPropertyOp2
 70
     1
102
RTVSPropertyOp3
 70
     1
102
RTVSPropertyOp4
 70
     1
102
RTVSPropertyOp5
 70
     1
102
RTVSPropertyOp6
 70
     1
102
RTVSPropertyOp7
 70
     1
102
RTVSPropertyOp8
 70
     1
102
RTVSPropertyOp9
 70
     1
102
RTVSPropertyOp10
 70
     1
102
RTVSPropertyOp11
 70
     1
102
RTVSPropertyOp12
 70
     1
102
RTVSPropertyOp13
 70
     1
102
RTVSPropertyOp14
 70
     1
102
RTVSPropertyOp15
 70
     1
102
RTVSPropertyOp16
 70
     1
102
RTVSPropertyOp17
 70
     1
102
RTVSPropertyOp18
 70
     1
102
RTVSPropertyOp19
 70
     1
102
RTVSPropertyOp20
 70
     1
102
RTVSPropertyOp21
 70
     1
102
RTVSPropertyOp22
 70
     1
102
RTVSPropertyOp23
 70
     1
102
RTVSPropertyOp24
 70
     1
102
RTVSPropertyOp25
 70
     1
102
RTVSPropertyOp26
 70
     1
102
RTVSPropertyOp27
 70
     1
102
RTVSPropertyOp28
 70
     1
102
RTVSPropertyOp29
 70
     1
102
RTVSPropertyOp30
 70
     1
102
RTVSPropertyOp31
 70
     1
102
RTVSPropertyOp32
 70
     1
102
RTVSPropertyOp33
 70
     1
102
RTVSPropertyOp34
 70
     1
102
RTVSPropertyOp35
 70
     1
102
RTVSPropertyOp36
 70
     1
102
RTVSPropertyOp37
 70
     1
102
RTVSPropertyOp38
 70
     1
102
RTVSPropertyOp39
 70
     1
102
RTVSPropertyOp40
 70
     1
102
RTVSPropertyOp41
 70
     1
102
RTVSPropertyOp42
 70
     1
102
RTVSPropertyOp43
 70
     1
102
RTVSPropertyOp44
 70
     1
102
RTVSPropertyOp45
 70
     1
102
RTVSPropertyOp46
 70
     1
102
RTVSPropertyOp47
 70
     1
102
RTVSPropertyOp48
 70
     1
102
RTVSPropertyOp49
 70
     1
102
RTVSPropertyOp50
 70
     1
102
RTVSPropertyOp51
 70
     0
102
RTVSPropertyOp52
 70
     0
102
RTVSPropertyOp53
 70
     1
102
RTVSPropertyOp54
 70
     1
102
RTVSPropertyOp55
 70
     1
102
RTVSPropertyOp56
 70
     1
102
RTVSPropertyOp57
 70
     1
102
RTVSPropertyOp58
 70
     1
102
RTVSPropertyOp59
 70
     1
102
RTVSPropertyOp60
 70
     1
102
RTVSPropertyOp61
 70
     1
102
RTVSPropertyOp62
 70
     1
  0
XRECORD
  5
5B11
102
{ACAD_REACTORS
330
5B10
102
}
330
5B10
100
AcDbXrecord
280
     1
102
RTVSPost2010Prop28
280
     0
102
RTVSPost2010PropOp28
 70
     1
102
RTVSPost2010Prop29
280
     1
102
RTVSPost2010PropOp29
 70
     1
102
RTVSPost2010Prop30
280
     1
102
RTVSPost2010PropOp30
 70
     1
102
RTVSPost2010Prop31
280
     0
102
RTVSPost2010PropOp31
 70
     1
102
RTVSPost2010Prop32
280
     0
102
RTVSPost2010PropOp32
 70
     1
102
RTVSPost2010Prop33
280
     0
102
RTVSPost2010PropOp33
 70
     1
102
RTVSPost2010Prop34
280
     0
102
RTVSPost2010PropOp34
 70
     1
102
RTVSPost2010Prop35
280
     0
102
RTVSPost2010PropOp35
 70
     1
102
RTVSPost2010Prop36
280
     0
102
RTVSPost2010PropOp36
 70
     1
102
RTVSPost2010Prop37
 90
       50
102
RTVSPost2010PropOp37
 70
     1
102
RTVSPost2010Prop38
140
0.0
102
RTVSPost2010PropOp38
 70
     1
102
RTVSPost2010Prop39
140
1.0
102
RTVSPost2010PropOp39
 70
     1
102
RTVSPost2010Prop40
 90
        0
102
RTVSPost2010PropOp40
 70
     1
102
RTVSPost2010Prop41ColorIndex
 90
       18
102
RTVSPost2010Prop41ColorRGB
 90
        0
102
RTVSPost2010PropOp41
 70
     1
102
RTVSPost2010Prop42
 90
       50
102
RTVSPost2010PropOp42
 70
     1
102
RTVSPost2010Prop43
 90
        3
102
RTVSPost2010PropOp43
 70
     1
102
RTVSPost2010Prop44ColorIndex
 90
        5
102
RTVSPost2010Prop44ColorRGB
 90
      255
102
RTVSPost2010PropOp44
 70
     1
102
RTVSPost2010Prop45
280
     0
102
RTVSPost2010PropOp45
 70
     1
102
RTVSPost2010Prop46
 90
       50
102
RTVSPost2010PropOp46
 70
     1
102
RTVSPost2010Prop47
 90
       50
102
RTVSPost2010PropOp47
 70
     1
102
RTVSPost2010Prop48
 90
       50
102
RTVSPost2010PropOp48
 70
     1
102
RTVSPost2010Prop49
280
     0
102
RTVSPost2010PropOp49
 70
     1
102
RTVSPost2010Prop50
 90
       50
102
RTVSPost2010PropOp50
 70
     1
102
RTVSPost2010Prop51ColorIndex
 90
      256
102
RTVSPost2010Prop51ColorRGB
 90
-16777216
102
RTVSPost2010PropOp51
 70
     0
102
RTVSPost2010Prop52
140
1.0
102
RTVSPost2010PropOp52
 70
     0
102
RTVSPost2010Prop53
 90
        2
102
RTVSPost2010PropOp53
 70
     1
102
RTVSPost2010Prop54
  1
strokes_ogs.tif
102
RTVSPost2010PropOp54
 70
     1
102
RTVSPost2010Prop55
280
     0
102
RTVSPost2010PropOp55
 70
     1
102
RTVSPost2010Prop56
140
1.0
102
RTVSPost2010PropOp56
 70
     1
102
RTVSPost2010Prop57
140
1.0
102
RTVSPost2010PropOp57
 70
     1
102
RTVSPropertyOp0
 70
     1
102
RTVSPropertyOp1
 70
     1
102
RTVSPropertyOp2
 70
     1
102
RTVSPropertyOp3
 70
     1
102
RTVSPropertyOp4
 70
     1
102
RTVSPropertyOp5
 70
     1
102
RTVSPropertyOp6
 70
     1
102
RTVSPropertyOp7
 70
     1
102
RTVSPropertyOp8
 70
     1
102
RTVSPropertyOp9
 70
     1
102
RTVSPropertyOp10
 70
     1
102
RTVSPropertyOp11
 70
     1
102
RTVSPropertyOp12
 70
     1
102
RTVSPropertyOp13
 70
     1
102
RTVSPropertyOp14
 70
     1
102
RTVSPropertyOp15
 70
     1
102
RTVSPropertyOp16
 70
     1
102
RTVSPropertyOp17
 70
     1
102
RTVSPropertyOp18
 70
     1
102
RTVSPropertyOp19
 70
     1
102
RTVSPropertyOp20
 70
     1
102
RTVSPropertyOp21
 70
     1
102
RTVSPropertyOp22
 70
     1
102
RTVSPropertyOp23
 70
     1
102
RTVSPropertyOp24
 70
     1
102
RTVSPropertyOp25
 70
     1
102
RTVSPropertyOp26
 70
     1
102
RTVSPropertyOp27
 70
     1
102
RTVSPropertyOp28
 70
     1
102
RTVSPropertyOp29
 70
     1
102
RTVSPropertyOp30
 70
     1
102
RTVSPropertyOp31
 70
     1
102
RTVSPropertyOp32
 70
     1
102
RTVSPropertyOp33
 70
     1
102
RTVSPropertyOp34
 70
     1
102
RTVSPropertyOp35
 70
     1
102
RTVSPropertyOp36
 70
     1
102
RTVSPropertyOp37
 70
     1
102
RTVSPropertyOp38
 70
     1
102
RTVSPropertyOp39
 70
     1
102
RTVSPropertyOp40
 70
     1
102
RTVSPropertyOp41
 70
     1
102
RTVSPropertyOp42
 70
     1
102
RTVSPropertyOp43
 70
     1
102
RTVSPropertyOp44
 70
     1
102
RTVSPropertyOp45
 70
     1
102
RTVSPropertyOp46
 70
     1
102
RTVSPropertyOp47
 70
     1
102
RTVSPropertyOp48
 70
     1
102
RTVSPropertyOp49
 70
     1
102
RTVSPropertyOp50
 70
     1
102
RTVSPropertyOp51
 70
     0
102
RTVSPropertyOp52
 70
     0
102
RTVSPropertyOp53
 70
     1
102
RTVSPropertyOp54
 70
     1
102
RTVSPropertyOp55
 70
     1
102
RTVSPropertyOp56
 70
     1
102
RTVSPropertyOp57
 70
     1
102
RTVSPropertyOp58
 70
     1
102
RTVSPropertyOp59
 70
     1
102
RTVSPropertyOp60
 70
     1
102
RTVSPropertyOp61
 70
     1
102
RTVSPropertyOp62
 70
     1
  0
XRECORD
  5
5B03
102
{ACAD_REACTORS
330
5B02
102
}
330
5B02
100
AcDbXrecord
280
     1
102
RTVSPost2010Prop28
280
     0
102
RTVSPost2010PropOp28
 70
     1
102
RTVSPost2010Prop29
280
     1
102
RTVSPost2010PropOp29
 70
     1
102
RTVSPost2010Prop30
280
     1
102
RTVSPost2010PropOp30
 70
     1
102
RTVSPost2010Prop31
280
     0
102
RTVSPost2010PropOp31
 70
     1
102
RTVSPost2010Prop32
280
     0
102
RTVSPost2010PropOp32
 70
     1
102
RTVSPost2010Prop33
280
     0
102
RTVSPost2010PropOp33
 70
     1
102
RTVSPost2010Prop34
280
     0
102
RTVSPost2010PropOp34
 70
     1
102
RTVSPost2010Prop35
280
     0
102
RTVSPost2010PropOp35
 70
     1
102
RTVSPost2010Prop36
280
     0
102
RTVSPost2010PropOp36
 70
     1
102
RTVSPost2010Prop37
 90
       50
102
RTVSPost2010PropOp37
 70
     1
102
RTVSPost2010Prop38
140
0.0
102
RTVSPost2010PropOp38
 70
     1
102
RTVSPost2010Prop39
140
1.0
102
RTVSPost2010PropOp39
 70
     1
102
RTVSPost2010Prop40
 90
        0
102
RTVSPost2010PropOp40
 70
     1
102
RTVSPost2010Prop41ColorIndex
 90
       18
102
RTVSPost2010Prop41ColorRGB
 90
        0
102
RTVSPost2010PropOp41
 70
     1
102
RTVSPost2010Prop42
 90
       50
102
RTVSPost2010PropOp42
 70
     1
102
RTVSPost2010Prop43
 90
        3
102
RTVSPost2010PropOp43
 70
     1
102
RTVSPost2010Prop44ColorIndex
 90
        5
102
RTVSPost2010Prop44ColorRGB
 90
      255
102
RTVSPost2010PropOp44
 70
     1
102
RTVSPost2010Prop45
280
     0
102
RTVSPost2010PropOp45
 70
     1
102
RTVSPost2010Prop46
 90
       50
102
RTVSPost2010PropOp46
 70
     1
102
RTVSPost2010Prop47
 90
       50
102
RTVSPost2010PropOp47
 70
     1
102
RTVSPost2010Prop48
 90
       50
102
RTVSPost2010PropOp48
 70
     1
102
RTVSPost2010Prop49
280
     0
102
RTVSPost2010PropOp49
 70
     1
102
RTVSPost2010Prop50
 90
       50
102
RTVSPost2010PropOp50
 70
     1
102
RTVSPost2010Prop51ColorIndex
 90
      256
102
RTVSPost2010Prop51ColorRGB
 90
-16777216
102
RTVSPost2010PropOp51
 70
     0
102
RTVSPost2010Prop52
140
1.0
102
RTVSPost2010PropOp52
 70
     0
102
RTVSPost2010Prop53
 90
        2
102
RTVSPost2010PropOp53
 70
     1
102
RTVSPost2010Prop54
  1
strokes_ogs.tif
102
RTVSPost2010PropOp54
 70
     1
102
RTVSPost2010Prop55
280
     0
102
RTVSPost2010PropOp55
 70
     1
102
RTVSPost2010Prop56
140
1.0
102
RTVSPost2010PropOp56
 70
     1
102
RTVSPost2010Prop57
140
1.0
102
RTVSPost2010PropOp57
 70
     1
102
RTVSPropertyOp0
 70
     1
102
RTVSPropertyOp1
 70
     1
102
RTVSPropertyOp2
 70
     1
102
RTVSPropertyOp3
 70
     1
102
RTVSPropertyOp4
 70
     1
102
RTVSPropertyOp5
 70
     1
102
RTVSPropertyOp6
 70
     1
102
RTVSPropertyOp7
 70
     1
102
RTVSPropertyOp8
 70
     1
102
RTVSPropertyOp9
 70
     1
102
RTVSPropertyOp10
 70
     1
102
RTVSPropertyOp11
 70
     1
102
RTVSPropertyOp12
 70
     1
102
RTVSPropertyOp13
 70
     1
102
RTVSPropertyOp14
 70
     1
102
RTVSPropertyOp15
 70
     1
102
RTVSPropertyOp16
 70
     1
102
RTVSPropertyOp17
 70
     1
102
RTVSPropertyOp18
 70
     1
102
RTVSPropertyOp19
 70
     1
102
RTVSPropertyOp20
 70
     1
102
RTVSPropertyOp21
 70
     1
102
RTVSPropertyOp22
 70
     1
102
RTVSPropertyOp23
 70
     1
102
RTVSPropertyOp24
 70
     1
102
RTVSPropertyOp25
 70
     1
102
RTVSPropertyOp26
 70
     1
102
RTVSPropertyOp27
 70
     1
102
RTVSPropertyOp28
 70
     1
102
RTVSPropertyOp29
 70
     1
102
RTVSPropertyOp30
 70
     1
102
RTVSPropertyOp31
 70
     1
102
RTVSPropertyOp32
 70
     1
102
RTVSPropertyOp33
 70
     1
102
RTVSPropertyOp34
 70
     1
102
RTVSPropertyOp35
 70
     1
102
RTVSPropertyOp36
 70
     1
102
RTVSPropertyOp37
 70
     1
102
RTVSPropertyOp38
 70
     1
102
RTVSPropertyOp39
 70
     1
102
RTVSPropertyOp40
 70
     1
102
RTVSPropertyOp41
 70
     1
102
RTVSPropertyOp42
 70
     1
102
RTVSPropertyOp43
 70
     1
102
RTVSPropertyOp44
 70
     1
102
RTVSPropertyOp45
 70
     1
102
RTVSPropertyOp46
 70
     1
102
RTVSPropertyOp47
 70
     1
102
RTVSPropertyOp48
 70
     1
102
RTVSPropertyOp49
 70
     1
102
RTVSPropertyOp50
 70
     1
102
RTVSPropertyOp51
 70
     0
102
RTVSPropertyOp52
 70
     0
102
RTVSPropertyOp53
 70
     1
102
RTVSPropertyOp54
 70
     1
102
RTVSPropertyOp55
 70
     1
102
RTVSPropertyOp56
 70
     1
102
RTVSPropertyOp57
 70
     1
102
RTVSPropertyOp58
 70
     1
102
RTVSPropertyOp59
 70
     1
102
RTVSPropertyOp60
 70
     1
102
RTVSPropertyOp61
 70
     1
102
RTVSPropertyOp62
 70
     1
  0
XRECORD
  5
5B07
102
{ACAD_REACTORS
330
5B06
102
}
330
5B06
100
AcDbXrecord
280
     1
102
RTVSPost2010Prop28
280
     0
102
RTVSPost2010PropOp28
 70
     1
102
RTVSPost2010Prop29
280
     1
102
RTVSPost2010PropOp29
 70
     1
102
RTVSPost2010Prop30
280
     1
102
RTVSPost2010PropOp30
 70
     1
102
RTVSPost2010Prop31
280
     0
102
RTVSPost2010PropOp31
 70
     1
102
RTVSPost2010Prop32
280
     0
102
RTVSPost2010PropOp32
 70
     1
102
RTVSPost2010Prop33
280
     0
102
RTVSPost2010PropOp33
 70
     1
102
RTVSPost2010Prop34
280
     0
102
RTVSPost2010PropOp34
 70
     1
102
RTVSPost2010Prop35
280
     0
102
RTVSPost2010PropOp35
 70
     1
102
RTVSPost2010Prop36
280
     0
102
RTVSPost2010PropOp36
 70
     1
102
RTVSPost2010Prop37
 90
       50
102
RTVSPost2010PropOp37
 70
     1
102
RTVSPost2010Prop38
140
0.0
102
RTVSPost2010PropOp38
 70
     1
102
RTVSPost2010Prop39
140
1.0
102
RTVSPost2010PropOp39
 70
     1
102
RTVSPost2010Prop40
 90
        0
102
RTVSPost2010PropOp40
 70
     1
102
RTVSPost2010Prop41ColorIndex
 90
       18
102
RTVSPost2010Prop41ColorRGB
 90
        0
102
RTVSPost2010PropOp41
 70
     1
102
RTVSPost2010Prop42
 90
       50
102
RTVSPost2010PropOp42
 70
     1
102
RTVSPost2010Prop43
 90
        3
102
RTVSPost2010PropOp43
 70
     1
102
RTVSPost2010Prop44ColorIndex
 90
        5
102
RTVSPost2010Prop44ColorRGB
 90
      255
102
RTVSPost2010PropOp44
 70
     1
102
RTVSPost2010Prop45
280
     0
102
RTVSPost2010PropOp45
 70
     1
102
RTVSPost2010Prop46
 90
       50
102
RTVSPost2010PropOp46
 70
     1
102
RTVSPost2010Prop47
 90
       50
102
RTVSPost2010PropOp47
 70
     1
102
RTVSPost2010Prop48
 90
       50
102
RTVSPost2010PropOp48
 70
     1
102
RTVSPost2010Prop49
280
     0
102
RTVSPost2010PropOp49
 70
     1
102
RTVSPost2010Prop50
 90
       50
102
RTVSPost2010PropOp50
 70
     1
102
RTVSPost2010Prop51ColorIndex
 90
      256
102
RTVSPost2010Prop51ColorRGB
 90
-16777216
102
RTVSPost2010PropOp51
 70
     0
102
RTVSPost2010Prop52
140
1.0
102
RTVSPost2010PropOp52
 70
     0
102
RTVSPost2010Prop53
 90
        2
102
RTVSPost2010PropOp53
 70
     1
102
RTVSPost2010Prop54
  1
strokes_ogs.tif
102
RTVSPost2010PropOp54
 70
     1
102
RTVSPost2010Prop55
280
     0
102
RTVSPost2010PropOp55
 70
     1
102
RTVSPost2010Prop56
140
1.0
102
RTVSPost2010PropOp56
 70
     1
102
RTVSPost2010Prop57
140
1.0
102
RTVSPost2010PropOp57
 70
     1
102
RTVSPropertyOp0
 70
     1
102
RTVSPropertyOp1
 70
     1
102
RTVSPropertyOp2
 70
     1
102
RTVSPropertyOp3
 70
     1
102
RTVSPropertyOp4
 70
     1
102
RTVSPropertyOp5
 70
     1
102
RTVSPropertyOp6
 70
     1
102
RTVSPropertyOp7
 70
     1
102
RTVSPropertyOp8
 70
     1
102
RTVSPropertyOp9
 70
     1
102
RTVSPropertyOp10
 70
     1
102
RTVSPropertyOp11
 70
     1
102
RTVSPropertyOp12
 70
     1
102
RTVSPropertyOp13
 70
     1
102
RTVSPropertyOp14
 70
     1
102
RTVSPropertyOp15
 70
     1
102
RTVSPropertyOp16
 70
     1
102
RTVSPropertyOp17
 70
     1
102
RTVSPropertyOp18
 70
     1
102
RTVSPropertyOp19
 70
     1
102
RTVSPropertyOp20
 70
     1
102
RTVSPropertyOp21
 70
     1
102
RTVSPropertyOp22
 70
     1
102
RTVSPropertyOp23
 70
     1
102
RTVSPropertyOp24
 70
     1
102
RTVSPropertyOp25
 70
     1
102
RTVSPropertyOp26
 70
     1
102
RTVSPropertyOp27
 70
     1
102
RTVSPropertyOp28
 70
     1
102
RTVSPropertyOp29
 70
     1
102
RTVSPropertyOp30
 70
     1
102
RTVSPropertyOp31
 70
     1
102
RTVSPropertyOp32
 70
     1
102
RTVSPropertyOp33
 70
     1
102
RTVSPropertyOp34
 70
     1
102
RTVSPropertyOp35
 70
     1
102
RTVSPropertyOp36
 70
     1
102
RTVSPropertyOp37
 70
     1
102
RTVSPropertyOp38
 70
     1
102
RTVSPropertyOp39
 70
     1
102
RTVSPropertyOp40
 70
     1
102
RTVSPropertyOp41
 70
     1
102
RTVSPropertyOp42
 70
     1
102
RTVSPropertyOp43
 70
     1
102
RTVSPropertyOp44
 70
     1
102
RTVSPropertyOp45
 70
     1
102
RTVSPropertyOp46
 70
     1
102
RTVSPropertyOp47
 70
     1
102
RTVSPropertyOp48
 70
     1
102
RTVSPropertyOp49
 70
     1
102
RTVSPropertyOp50
 70
     1
102
RTVSPropertyOp51
 70
     0
102
RTVSPropertyOp52
 70
     0
102
RTVSPropertyOp53
 70
     1
102
RTVSPropertyOp54
 70
     1
102
RTVSPropertyOp55
 70
     1
102
RTVSPropertyOp56
 70
     1
102
RTVSPropertyOp57
 70
     1
102
RTVSPropertyOp58
 70
     1
102
RTVSPropertyOp59
 70
     1
102
RTVSPropertyOp60
 70
     1
102
RTVSPropertyOp61
 70
     1
102
RTVSPropertyOp62
 70
     1
  0
XRECORD
  5
5B25
102
{ACAD_REACTORS
330
5B24
102
}
330
5B24
100
AcDbXrecord
280
     1
102
RTVSPost2010Prop28
280
     0
102
RTVSPost2010PropOp28
 70
     0
102
RTVSPost2010Prop29
280
     1
102
RTVSPost2010PropOp29
 70
     0
102
RTVSPost2010Prop30
280
     1
102
RTVSPost2010PropOp30
 70
     0
102
RTVSPost2010Prop31
280
     0
102
RTVSPost2010PropOp31
 70
     0
102
RTVSPost2010Prop32
280
     0
102
RTVSPost2010PropOp32
 70
     0
102
RTVSPost2010Prop33
280
     0
102
RTVSPost2010PropOp33
 70
     1
102
RTVSPost2010Prop34
280
     0
102
RTVSPost2010PropOp34
 70
     1
102
RTVSPost2010Prop35
280
     0
102
RTVSPost2010PropOp35
 70
     1
102
RTVSPost2010Prop36
280
     0
102
RTVSPost2010PropOp36
 70
     1
102
RTVSPost2010Prop37
 90
       50
102
RTVSPost2010PropOp37
 70
     1
102
RTVSPost2010Prop38
140
0.0
102
RTVSPost2010PropOp38
 70
     1
102
RTVSPost2010Prop39
140
1.0
102
RTVSPost2010PropOp39
 70
     1
102
RTVSPost2010Prop40
 90
        0
102
RTVSPost2010PropOp40
 70
     1
102
RTVSPost2010Prop41ColorIndex
 90
       18
102
RTVSPost2010Prop41ColorRGB
 90
        0
102
RTVSPost2010PropOp41
 70
     1
102
RTVSPost2010Prop42
 90
       50
102
RTVSPost2010PropOp42
 70
     1
102
RTVSPost2010Prop43
 90
        3
102
RTVSPost2010PropOp43
 70
     1
102
RTVSPost2010Prop44ColorIndex
 90
        5
102
RTVSPost2010Prop44ColorRGB
 90
      255
102
RTVSPost2010PropOp44
 70
     1
102
RTVSPost2010Prop45
280
     0
102
RTVSPost2010PropOp45
 70
     1
102
RTVSPost2010Prop46
 90
       50
102
RTVSPost2010PropOp46
 70
     1
102
RTVSPost2010Prop47
 90
       50
102
RTVSPost2010PropOp47
 70
     1
102
RTVSPost2010Prop48
 90
       50
102
RTVSPost2010PropOp48
 70
     1
102
RTVSPost2010Prop49
280
     0
102
RTVSPost2010PropOp49
 70
     1
102
RTVSPost2010Prop50
 90
       50
102
RTVSPost2010PropOp50
 70
     1
102
RTVSPost2010Prop51ColorIndex
 90
      256
102
RTVSPost2010Prop51ColorRGB
 90
-16777216
102
RTVSPost2010PropOp51
 70
     0
102
RTVSPost2010Prop52
140
1.0
102
RTVSPost2010PropOp52
 70
     0
102
RTVSPost2010Prop53
 90
        2
102
RTVSPost2010PropOp53
 70
     1
102
RTVSPost2010Prop54
  1
strokes_ogs.tif
102
RTVSPost2010PropOp54
 70
     1
102
RTVSPost2010Prop55
280
     0
102
RTVSPost2010PropOp55
 70
     1
102
RTVSPost2010Prop56
140
1.0
102
RTVSPost2010PropOp56
 70
     1
102
RTVSPost2010Prop57
140
1.0
102
RTVSPost2010PropOp57
 70
     1
102
RTVSPropertyOp0
 70
     0
102
RTVSPropertyOp1
 70
     0
102
RTVSPropertyOp2
 70
     0
102
RTVSPropertyOp3
 70
     0
102
RTVSPropertyOp4
 70
     0
102
RTVSPropertyOp5
 70
     0
102
RTVSPropertyOp6
 70
     0
102
RTVSPropertyOp7
 70
     0
102
RTVSPropertyOp8
 70
     0
102
RTVSPropertyOp9
 70
     0
102
RTVSPropertyOp10
 70
     0
102
RTVSPropertyOp11
 70
     0
102
RTVSPropertyOp12
 70
     0
102
RTVSPropertyOp13
 70
     0
102
RTVSPropertyOp14
 70
     2
102
RTVSPropertyOp15
 70
     0
102
RTVSPropertyOp16
 70
     0
102
RTVSPropertyOp17
 70
     0
102
RTVSPropertyOp18
 70
     0
102
RTVSPropertyOp19
 70
     0
102
RTVSPropertyOp20
 70
     0
102
RTVSPropertyOp21
 70
     0
102
RTVSPropertyOp22
 70
     0
102
RTVSPropertyOp23
 70
     0
102
RTVSPropertyOp24
 70
     0
102
RTVSPropertyOp25
 70
     0
102
RTVSPropertyOp26
 70
     0
102
RTVSPropertyOp27
 70
     0
102
RTVSPropertyOp28
 70
     0
102
RTVSPropertyOp29
 70
     0
102
RTVSPropertyOp30
 70
     0
102
RTVSPropertyOp31
 70
     0
102
RTVSPropertyOp32
 70
     0
102
RTVSPropertyOp33
 70
     1
102
RTVSPropertyOp34
 70
     1
102
RTVSPropertyOp35
 70
     1
102
RTVSPropertyOp36
 70
     1
102
RTVSPropertyOp37
 70
     1
102
RTVSPropertyOp38
 70
     1
102
RTVSPropertyOp39
 70
     1
102
RTVSPropertyOp40
 70
     1
102
RTVSPropertyOp41
 70
     1
102
RTVSPropertyOp42
 70
     1
102
RTVSPropertyOp43
 70
     1
102
RTVSPropertyOp44
 70
     1
102
RTVSPropertyOp45
 70
     1
102
RTVSPropertyOp46
 70
     1
102
RTVSPropertyOp47
 70
     1
102
RTVSPropertyOp48
 70
     1
102
RTVSPropertyOp49
 70
     1
102
RTVSPropertyOp50
 70
     1
102
RTVSPropertyOp51
 70
     0
102
RTVSPropertyOp52
 70
     0
102
RTVSPropertyOp53
 70
     1
102
RTVSPropertyOp54
 70
     1
102
RTVSPropertyOp55
 70
     1
102
RTVSPropertyOp56
 70
     1
102
RTVSPropertyOp57
 70
     1
102
RTVSPropertyOp58
 70
     1
102
RTVSPropertyOp59
 70
     1
102
RTVSPropertyOp60
 70
     1
102
RTVSPropertyOp61
 70
     1
102
RTVSPropertyOp62
 70
     1
  0
XRECORD
  5
5B0F
102
{ACAD_REACTORS
330
5B0E
102
}
330
5B0E
100
AcDbXrecord
280
     1
102
RTVSPost2010Prop28
280
     0
102
RTVSPost2010PropOp28
 70
     1
102
RTVSPost2010Prop29
280
     1
102
RTVSPost2010PropOp29
 70
     1
102
RTVSPost2010Prop30
280
     1
102
RTVSPost2010PropOp30
 70
     1
102
RTVSPost2010Prop31
280
     0
102
RTVSPost2010PropOp31
 70
     1
102
RTVSPost2010Prop32
280
     0
102
RTVSPost2010PropOp32
 70
     1
102
RTVSPost2010Prop33
280
     0
102
RTVSPost2010PropOp33
 70
     1
102
RTVSPost2010Prop34
280
     0
102
RTVSPost2010PropOp34
 70
     1
102
RTVSPost2010Prop35
280
     0
102
RTVSPost2010PropOp35
 70
     1
102
RTVSPost2010Prop36
280
     0
102
RTVSPost2010PropOp36
 70
     1
102
RTVSPost2010Prop37
 90
       50
102
RTVSPost2010PropOp37
 70
     1
102
RTVSPost2010Prop38
140
0.0
102
RTVSPost2010PropOp38
 70
     1
102
RTVSPost2010Prop39
140
1.0
102
RTVSPost2010PropOp39
 70
     1
102
RTVSPost2010Prop40
 90
        0
102
RTVSPost2010PropOp40
 70
     1
102
RTVSPost2010Prop41ColorIndex
 90
       18
102
RTVSPost2010Prop41ColorRGB
 90
        0
102
RTVSPost2010PropOp41
 70
     1
102
RTVSPost2010Prop42
 90
       50
102
RTVSPost2010PropOp42
 70
     1
102
RTVSPost2010Prop43
 90
        3
102
RTVSPost2010PropOp43
 70
     1
102
RTVSPost2010Prop44ColorIndex
 90
        5
102
RTVSPost2010Prop44ColorRGB
 90
      255
102
RTVSPost2010PropOp44
 70
     1
102
RTVSPost2010Prop45
280
     0
102
RTVSPost2010PropOp45
 70
     1
102
RTVSPost2010Prop46
 90
       50
102
RTVSPost2010PropOp46
 70
     1
102
RTVSPost2010Prop47
 90
       50
102
RTVSPost2010PropOp47
 70
     1
102
RTVSPost2010Prop48
 90
       50
102
RTVSPost2010PropOp48
 70
     1
102
RTVSPost2010Prop49
280
     0
102
RTVSPost2010PropOp49
 70
     1
102
RTVSPost2010Prop50
 90
       50
102
RTVSPost2010PropOp50
 70
     1
102
RTVSPost2010Prop51ColorIndex
 90
      256
102
RTVSPost2010Prop51ColorRGB
 90
-16777216
102
RTVSPost2010PropOp51
 70
     0
102
RTVSPost2010Prop52
140
1.0
102
RTVSPost2010PropOp52
 70
     0
102
RTVSPost2010Prop53
 90
        2
102
RTVSPost2010PropOp53
 70
     1
102
RTVSPost2010Prop54
  1
strokes_ogs.tif
102
RTVSPost2010PropOp54
 70
     1
102
RTVSPost2010Prop55
280
     0
102
RTVSPost2010PropOp55
 70
     1
102
RTVSPost2010Prop56
140
1.0
102
RTVSPost2010PropOp56
 70
     1
102
RTVSPost2010Prop57
140
1.0
102
RTVSPost2010PropOp57
 70
     1
102
RTVSPropertyOp0
 70
     1
102
RTVSPropertyOp1
 70
     1
102
RTVSPropertyOp2
 70
     1
102
RTVSPropertyOp3
 70
     1
102
RTVSPropertyOp4
 70
     1
102
RTVSPropertyOp5
 70
     1
102
RTVSPropertyOp6
 70
     1
102
RTVSPropertyOp7
 70
     1
102
RTVSPropertyOp8
 70
     1
102
RTVSPropertyOp9
 70
     1
102
RTVSPropertyOp10
 70
     1
102
RTVSPropertyOp11
 70
     1
102
RTVSPropertyOp12
 70
     1
102
RTVSPropertyOp13
 70
     1
102
RTVSPropertyOp14
 70
     1
102
RTVSPropertyOp15
 70
     1
102
RTVSPropertyOp16
 70
     1
102
RTVSPropertyOp17
 70
     1
102
RTVSPropertyOp18
 70
     1
102
RTVSPropertyOp19
 70
     1
102
RTVSPropertyOp20
 70
     1
102
RTVSPropertyOp21
 70
     1
102
RTVSPropertyOp22
 70
     1
102
RTVSPropertyOp23
 70
     1
102
RTVSPropertyOp24
 70
     1
102
RTVSPropertyOp25
 70
     1
102
RTVSPropertyOp26
 70
     1
102
RTVSPropertyOp27
 70
     1
102
RTVSPropertyOp28
 70
     1
102
RTVSPropertyOp29
 70
     1
102
RTVSPropertyOp30
 70
     1
102
RTVSPropertyOp31
 70
     1
102
RTVSPropertyOp32
 70
     1
102
RTVSPropertyOp33
 70
     1
102
RTVSPropertyOp34
 70
     1
102
RTVSPropertyOp35
 70
     1
102
RTVSPropertyOp36
 70
     1
102
RTVSPropertyOp37
 70
     1
102
RTVSPropertyOp38
 70
     1
102
RTVSPropertyOp39
 70
     1
102
RTVSPropertyOp40
 70
     1
102
RTVSPropertyOp41
 70
     1
102
RTVSPropertyOp42
 70
     1
102
RTVSPropertyOp43
 70
     1
102
RTVSPropertyOp44
 70
     1
102
RTVSPropertyOp45
 70
     1
102
RTVSPropertyOp46
 70
     1
102
RTVSPropertyOp47
 70
     1
102
RTVSPropertyOp48
 70
     1
102
RTVSPropertyOp49
 70
     1
102
RTVSPropertyOp50
 70
     1
102
RTVSPropertyOp51
 70
     0
102
RTVSPropertyOp52
 70
     0
102
RTVSPropertyOp53
 70
     1
102
RTVSPropertyOp54
 70
     1
102
RTVSPropertyOp55
 70
     1
102
RTVSPropertyOp56
 70
     1
102
RTVSPropertyOp57
 70
     1
102
RTVSPropertyOp58
 70
     1
102
RTVSPropertyOp59
 70
     1
102
RTVSPropertyOp60
 70
     1
102
RTVSPropertyOp61
 70
     1
102
RTVSPropertyOp62
 70
     1
  0
XRECORD
  5
5AF3
102
{ACAD_REACTORS
330
5AF2
102
}
330
5AF2
100
AcDbXrecord
280
     1
102
RTVSPost2010Prop28
280
     0
102
RTVSPost2010PropOp28
 70
     1
102
RTVSPost2010Prop29
280
     1
102
RTVSPost2010PropOp29
 70
     1
102
RTVSPost2010Prop30
280
     1
102
RTVSPost2010PropOp30
 70
     1
102
RTVSPost2010Prop31
280
     0
102
RTVSPost2010PropOp31
 70
     1
102
RTVSPost2010Prop32
280
     0
102
RTVSPost2010PropOp32
 70
     1
102
RTVSPost2010Prop33
280
     0
102
RTVSPost2010PropOp33
 70
     1
102
RTVSPost2010Prop34
280
     0
102
RTVSPost2010PropOp34
 70
     1
102
RTVSPost2010Prop35
280
     0
102
RTVSPost2010PropOp35
 70
     1
102
RTVSPost2010Prop36
280
     0
102
RTVSPost2010PropOp36
 70
     1
102
RTVSPost2010Prop37
 90
       50
102
RTVSPost2010PropOp37
 70
     1
102
RTVSPost2010Prop38
140
0.0
102
RTVSPost2010PropOp38
 70
     1
102
RTVSPost2010Prop39
140
1.0
102
RTVSPost2010PropOp39
 70
     1
102
RTVSPost2010Prop40
 90
        0
102
RTVSPost2010PropOp40
 70
     1
102
RTVSPost2010Prop41ColorIndex
 90
       18
102
RTVSPost2010Prop41ColorRGB
 90
        0
102
RTVSPost2010PropOp41
 70
     1
102
RTVSPost2010Prop42
 90
       50
102
RTVSPost2010PropOp42
 70
     1
102
RTVSPost2010Prop43
 90
        3
102
RTVSPost2010PropOp43
 70
     1
102
RTVSPost2010Prop44ColorIndex
 90
        5
102
RTVSPost2010Prop44ColorRGB
 90
      255
102
RTVSPost2010PropOp44
 70
     1
102
RTVSPost2010Prop45
280
     0
102
RTVSPost2010PropOp45
 70
     1
102
RTVSPost2010Prop46
 90
       50
102
RTVSPost2010PropOp46
 70
     1
102
RTVSPost2010Prop47
 90
       50
102
RTVSPost2010PropOp47
 70
     1
102
RTVSPost2010Prop48
 90
       50
102
RTVSPost2010PropOp48
 70
     1
102
RTVSPost2010Prop49
280
     0
102
RTVSPost2010PropOp49
 70
     1
102
RTVSPost2010Prop50
 90
       50
102
RTVSPost2010PropOp50
 70
     1
102
RTVSPost2010Prop51ColorIndex
 90
      256
102
RTVSPost2010Prop51ColorRGB
 90
-16777216
102
RTVSPost2010PropOp51
 70
     0
102
RTVSPost2010Prop52
140
1.0
102
RTVSPost2010PropOp52
 70
     0
102
RTVSPost2010Prop53
 90
        2
102
RTVSPost2010PropOp53
 70
     1
102
RTVSPost2010Prop54
  1
strokes_ogs.tif
102
RTVSPost2010PropOp54
 70
     1
102
RTVSPost2010Prop55
280
     0
102
RTVSPost2010PropOp55
 70
     1
102
RTVSPost2010Prop56
140
1.0
102
RTVSPost2010PropOp56
 70
     1
102
RTVSPost2010Prop57
140
1.0
102
RTVSPost2010PropOp57
 70
     1
102
RTVSPropertyOp0
 70
     1
102
RTVSPropertyOp1
 70
     1
102
RTVSPropertyOp2
 70
     1
102
RTVSPropertyOp3
 70
     1
102
RTVSPropertyOp4
 70
     1
102
RTVSPropertyOp5
 70
     1
102
RTVSPropertyOp6
 70
     1
102
RTVSPropertyOp7
 70
     1
102
RTVSPropertyOp8
 70
     1
102
RTVSPropertyOp9
 70
     1
102
RTVSPropertyOp10
 70
     1
102
RTVSPropertyOp11
 70
     1
102
RTVSPropertyOp12
 70
     1
102
RTVSPropertyOp13
 70
     1
102
RTVSPropertyOp14
 70
     1
102
RTVSPropertyOp15
 70
     1
102
RTVSPropertyOp16
 70
     1
102
RTVSPropertyOp17
 70
     1
102
RTVSPropertyOp18
 70
     1
102
RTVSPropertyOp19
 70
     1
102
RTVSPropertyOp20
 70
     1
102
RTVSPropertyOp21
 70
     1
102
RTVSPropertyOp22
 70
     1
102
RTVSPropertyOp23
 70
     1
102
RTVSPropertyOp24
 70
     1
102
RTVSPropertyOp25
 70
     1
102
RTVSPropertyOp26
 70
     1
102
RTVSPropertyOp27
 70
     1
102
RTVSPropertyOp28
 70
     1
102
RTVSPropertyOp29
 70
     1
102
RTVSPropertyOp30
 70
     1
102
RTVSPropertyOp31
 70
     1
102
RTVSPropertyOp32
 70
     1
102
RTVSPropertyOp33
 70
     1
102
RTVSPropertyOp34
 70
     1
102
RTVSPropertyOp35
 70
     1
102
RTVSPropertyOp36
 70
     1
102
RTVSPropertyOp37
 70
     1
102
RTVSPropertyOp38
 70
     1
102
RTVSPropertyOp39
 70
     1
102
RTVSPropertyOp40
 70
     1
102
RTVSPropertyOp41
 70
     1
102
RTVSPropertyOp42
 70
     1
102
RTVSPropertyOp43
 70
     1
102
RTVSPropertyOp44
 70
     1
102
RTVSPropertyOp45
 70
     1
102
RTVSPropertyOp46
 70
     1
102
RTVSPropertyOp47
 70
     1
102
RTVSPropertyOp48
 70
     1
102
RTVSPropertyOp49
 70
     1
102
RTVSPropertyOp50
 70
     1
102
RTVSPropertyOp51
 70
     0
102
RTVSPropertyOp52
 70
     0
102
RTVSPropertyOp53
 70
     1
102
RTVSPropertyOp54
 70
     1
102
RTVSPropertyOp55
 70
     1
102
RTVSPropertyOp56
 70
     1
102
RTVSPropertyOp57
 70
     1
102
RTVSPropertyOp58
 70
     1
102
RTVSPropertyOp59
 70
     1
102
RTVSPropertyOp60
 70
     1
102
RTVSPropertyOp61
 70
     1
102
RTVSPropertyOp62
 70
     1
  0
XRECORD
  5
5AF5
102
{ACAD_REACTORS
330
5AF4
102
}
330
5AF4
100
AcDbXrecord
280
     1
102
RTVSPost2010Prop28
280
     0
102
RTVSPost2010PropOp28
 70
     1
102
RTVSPost2010Prop29
280
     1
102
RTVSPost2010PropOp29
 70
     1
102
RTVSPost2010Prop30
280
     1
102
RTVSPost2010PropOp30
 70
     1
102
RTVSPost2010Prop31
280
     0
102
RTVSPost2010PropOp31
 70
     1
102
RTVSPost2010Prop32
280
     0
102
RTVSPost2010PropOp32
 70
     1
102
RTVSPost2010Prop33
280
     0
102
RTVSPost2010PropOp33
 70
     1
102
RTVSPost2010Prop34
280
     0
102
RTVSPost2010PropOp34
 70
     1
102
RTVSPost2010Prop35
280
     0
102
RTVSPost2010PropOp35
 70
     1
102
RTVSPost2010Prop36
280
     0
102
RTVSPost2010PropOp36
 70
     1
102
RTVSPost2010Prop37
 90
       50
102
RTVSPost2010PropOp37
 70
     1
102
RTVSPost2010Prop38
140
0.0
102
RTVSPost2010PropOp38
 70
     1
102
RTVSPost2010Prop39
140
1.0
102
RTVSPost2010PropOp39
 70
     1
102
RTVSPost2010Prop40
 90
        0
102
RTVSPost2010PropOp40
 70
     1
102
RTVSPost2010Prop41ColorIndex
 90
       18
102
RTVSPost2010Prop41ColorRGB
 90
        0
102
RTVSPost2010PropOp41
 70
     1
102
RTVSPost2010Prop42
 90
       50
102
RTVSPost2010PropOp42
 70
     1
102
RTVSPost2010Prop43
 90
        3
102
RTVSPost2010PropOp43
 70
     1
102
RTVSPost2010Prop44ColorIndex
 90
        5
102
RTVSPost2010Prop44ColorRGB
 90
      255
102
RTVSPost2010PropOp44
 70
     1
102
RTVSPost2010Prop45
280
     0
102
RTVSPost2010PropOp45
 70
     1
102
RTVSPost2010Prop46
 90
       50
102
RTVSPost2010PropOp46
 70
     1
102
RTVSPost2010Prop47
 90
       50
102
RTVSPost2010PropOp47
 70
     1
102
RTVSPost2010Prop48
 90
       50
102
RTVSPost2010PropOp48
 70
     1
102
RTVSPost2010Prop49
280
     0
102
RTVSPost2010PropOp49
 70
     1
102
RTVSPost2010Prop50
 90
       50
102
RTVSPost2010PropOp50
 70
     1
102
RTVSPost2010Prop51ColorIndex
 90
      256
102
RTVSPost2010Prop51ColorRGB
 90
-16777216
102
RTVSPost2010PropOp51
 70
     0
102
RTVSPost2010Prop52
140
1.0
102
RTVSPost2010PropOp52
 70
     0
102
RTVSPost2010Prop53
 90
        2
102
RTVSPost2010PropOp53
 70
     1
102
RTVSPost2010Prop54
  1
strokes_ogs.tif
102
RTVSPost2010PropOp54
 70
     1
102
RTVSPost2010Prop55
280
     0
102
RTVSPost2010PropOp55
 70
     1
102
RTVSPost2010Prop56
140
1.0
102
RTVSPost2010PropOp56
 70
     1
102
RTVSPost2010Prop57
140
1.0
102
RTVSPost2010PropOp57
 70
     1
102
RTVSPropertyOp0
 70
     1
102
RTVSPropertyOp1
 70
     1
102
RTVSPropertyOp2
 70
     1
102
RTVSPropertyOp3
 70
     1
102
RTVSPropertyOp4
 70
     1
102
RTVSPropertyOp5
 70
     1
102
RTVSPropertyOp6
 70
     1
102
RTVSPropertyOp7
 70
     1
102
RTVSPropertyOp8
 70
     1
102
RTVSPropertyOp9
 70
     1
102
RTVSPropertyOp10
 70
     1
102
RTVSPropertyOp11
 70
     1
102
RTVSPropertyOp12
 70
     1
102
RTVSPropertyOp13
 70
     1
102
RTVSPropertyOp14
 70
     1
102
RTVSPropertyOp15
 70
     1
102
RTVSPropertyOp16
 70
     1
102
RTVSPropertyOp17
 70
     1
102
RTVSPropertyOp18
 70
     1
102
RTVSPropertyOp19
 70
     1
102
RTVSPropertyOp20
 70
     1
102
RTVSPropertyOp21
 70
     1
102
RTVSPropertyOp22
 70
     1
102
RTVSPropertyOp23
 70
     1
102
RTVSPropertyOp24
 70
     1
102
RTVSPropertyOp25
 70
     1
102
RTVSPropertyOp26
 70
     1
102
RTVSPropertyOp27
 70
     1
102
RTVSPropertyOp28
 70
     1
102
RTVSPropertyOp29
 70
     1
102
RTVSPropertyOp30
 70
     1
102
RTVSPropertyOp31
 70
     1
102
RTVSPropertyOp32
 70
     1
102
RTVSPropertyOp33
 70
     1
102
RTVSPropertyOp34
 70
     1
102
RTVSPropertyOp35
 70
     1
102
RTVSPropertyOp36
 70
     1
102
RTVSPropertyOp37
 70
     1
102
RTVSPropertyOp38
 70
     1
102
RTVSPropertyOp39
 70
     1
102
RTVSPropertyOp40
 70
     1
102
RTVSPropertyOp41
 70
     1
102
RTVSPropertyOp42
 70
     1
102
RTVSPropertyOp43
 70
     1
102
RTVSPropertyOp44
 70
     1
102
RTVSPropertyOp45
 70
     1
102
RTVSPropertyOp46
 70
     1
102
RTVSPropertyOp47
 70
     1
102
RTVSPropertyOp48
 70
     1
102
RTVSPropertyOp49
 70
     1
102
RTVSPropertyOp50
 70
     1
102
RTVSPropertyOp51
 70
     0
102
RTVSPropertyOp52
 70
     0
102
RTVSPropertyOp53
 70
     1
102
RTVSPropertyOp54
 70
     1
102
RTVSPropertyOp55
 70
     1
102
RTVSPropertyOp56
 70
     1
102
RTVSPropertyOp57
 70
     1
102
RTVSPropertyOp58
 70
     1
102
RTVSPropertyOp59
 70
     1
102
RTVSPropertyOp60
 70
     1
102
RTVSPropertyOp61
 70
     1
102
RTVSPropertyOp62
 70
     1
  0
XRECORD
  5
5AF7
102
{ACAD_REACTORS
330
5AF6
102
}
330
5AF6
100
AcDbXrecord
280
     1
102
RTVSPost2010Prop28
280
     0
102
RTVSPost2010PropOp28
 70
     1
102
RTVSPost2010Prop29
280
     1
102
RTVSPost2010PropOp29
 70
     1
102
RTVSPost2010Prop30
280
     1
102
RTVSPost2010PropOp30
 70
     1
102
RTVSPost2010Prop31
280
     0
102
RTVSPost2010PropOp31
 70
     1
102
RTVSPost2010Prop32
280
     0
102
RTVSPost2010PropOp32
 70
     1
102
RTVSPost2010Prop33
280
     0
102
RTVSPost2010PropOp33
 70
     1
102
RTVSPost2010Prop34
280
     0
102
RTVSPost2010PropOp34
 70
     1
102
RTVSPost2010Prop35
280
     0
102
RTVSPost2010PropOp35
 70
     1
102
RTVSPost2010Prop36
280
     0
102
RTVSPost2010PropOp36
 70
     1
102
RTVSPost2010Prop37
 90
       50
102
RTVSPost2010PropOp37
 70
     1
102
RTVSPost2010Prop38
140
0.0
102
RTVSPost2010PropOp38
 70
     1
102
RTVSPost2010Prop39
140
1.0
102
RTVSPost2010PropOp39
 70
     1
102
RTVSPost2010Prop40
 90
        0
102
RTVSPost2010PropOp40
 70
     1
102
RTVSPost2010Prop41ColorIndex
 90
       18
102
RTVSPost2010Prop41ColorRGB
 90
        0
102
RTVSPost2010PropOp41
 70
     1
102
RTVSPost2010Prop42
 90
       50
102
RTVSPost2010PropOp42
 70
     1
102
RTVSPost2010Prop43
 90
        3
102
RTVSPost2010PropOp43
 70
     1
102
RTVSPost2010Prop44ColorIndex
 90
        5
102
RTVSPost2010Prop44ColorRGB
 90
      255
102
RTVSPost2010PropOp44
 70
     1
102
RTVSPost2010Prop45
280
     0
102
RTVSPost2010PropOp45
 70
     1
102
RTVSPost2010Prop46
 90
       50
102
RTVSPost2010PropOp46
 70
     1
102
RTVSPost2010Prop47
 90
       50
102
RTVSPost2010PropOp47
 70
     1
102
RTVSPost2010Prop48
 90
       50
102
RTVSPost2010PropOp48
 70
     1
102
RTVSPost2010Prop49
280
     0
102
RTVSPost2010PropOp49
 70
     1
102
RTVSPost2010Prop50
 90
       50
102
RTVSPost2010PropOp50
 70
     1
102
RTVSPost2010Prop51ColorIndex
 90
      256
102
RTVSPost2010Prop51ColorRGB
 90
-16777216
102
RTVSPost2010PropOp51
 70
     0
102
RTVSPost2010Prop52
140
1.0
102
RTVSPost2010PropOp52
 70
     0
102
RTVSPost2010Prop53
 90
        2
102
RTVSPost2010PropOp53
 70
     1
102
RTVSPost2010Prop54
  1
strokes_ogs.tif
102
RTVSPost2010PropOp54
 70
     1
102
RTVSPost2010Prop55
280
     0
102
RTVSPost2010PropOp55
 70
     1
102
RTVSPost2010Prop56
140
1.0
102
RTVSPost2010PropOp56
 70
     1
102
RTVSPost2010Prop57
140
1.0
102
RTVSPost2010PropOp57
 70
     1
102
RTVSPropertyOp0
 70
     1
102
RTVSPropertyOp1
 70
     1
102
RTVSPropertyOp2
 70
     1
102
RTVSPropertyOp3
 70
     1
102
RTVSPropertyOp4
 70
     1
102
RTVSPropertyOp5
 70
     1
102
RTVSPropertyOp6
 70
     1
102
RTVSPropertyOp7
 70
     1
102
RTVSPropertyOp8
 70
     1
102
RTVSPropertyOp9
 70
     1
102
RTVSPropertyOp10
 70
     1
102
RTVSPropertyOp11
 70
     1
102
RTVSPropertyOp12
 70
     1
102
RTVSPropertyOp13
 70
     1
102
RTVSPropertyOp14
 70
     1
102
RTVSPropertyOp15
 70
     1
102
RTVSPropertyOp16
 70
     1
102
RTVSPropertyOp17
 70
     1
102
RTVSPropertyOp18
 70
     1
102
RTVSPropertyOp19
 70
     1
102
RTVSPropertyOp20
 70
     1
102
RTVSPropertyOp21
 70
     1
102
RTVSPropertyOp22
 70
     1
102
RTVSPropertyOp23
 70
     1
102
RTVSPropertyOp24
 70
     1
102
RTVSPropertyOp25
 70
     1
102
RTVSPropertyOp26
 70
     1
102
RTVSPropertyOp27
 70
     1
102
RTVSPropertyOp28
 70
     1
102
RTVSPropertyOp29
 70
     1
102
RTVSPropertyOp30
 70
     1
102
RTVSPropertyOp31
 70
     1
102
RTVSPropertyOp32
 70
     1
102
RTVSPropertyOp33
 70
     1
102
RTVSPropertyOp34
 70
     1
102
RTVSPropertyOp35
 70
     1
102
RTVSPropertyOp36
 70
     1
102
RTVSPropertyOp37
 70
     1
102
RTVSPropertyOp38
 70
     1
102
RTVSPropertyOp39
 70
     1
102
RTVSPropertyOp40
 70
     1
102
RTVSPropertyOp41
 70
     1
102
RTVSPropertyOp42
 70
     1
102
RTVSPropertyOp43
 70
     1
102
RTVSPropertyOp44
 70
     1
102
RTVSPropertyOp45
 70
     1
102
RTVSPropertyOp46
 70
     1
102
RTVSPropertyOp47
 70
     1
102
RTVSPropertyOp48
 70
     1
102
RTVSPropertyOp49
 70
     1
102
RTVSPropertyOp50
 70
     1
102
RTVSPropertyOp51
 70
     0
102
RTVSPropertyOp52
 70
     0
102
RTVSPropertyOp53
 70
     1
102
RTVSPropertyOp54
 70
     1
102
RTVSPropertyOp55
 70
     1
102
RTVSPropertyOp56
 70
     1
102
RTVSPropertyOp57
 70
     1
102
RTVSPropertyOp58
 70
     1
102
RTVSPropertyOp59
 70
     1
102
RTVSPropertyOp60
 70
     1
102
RTVSPropertyOp61
 70
     1
102
RTVSPropertyOp62
 70
     1
  0
XRECORD
  5
5AF9
102
{ACAD_REACTORS
330
5AF8
102
}
330
5AF8
100
AcDbXrecord
280
     1
102
RTVSPost2010Prop28
280
     0
102
RTVSPost2010PropOp28
 70
     1
102
RTVSPost2010Prop29
280
     1
102
RTVSPost2010PropOp29
 70
     1
102
RTVSPost2010Prop30
280
     1
102
RTVSPost2010PropOp30
 70
     1
102
RTVSPost2010Prop31
280
     0
102
RTVSPost2010PropOp31
 70
     1
102
RTVSPost2010Prop32
280
     0
102
RTVSPost2010PropOp32
 70
     1
102
RTVSPost2010Prop33
280
     0
102
RTVSPost2010PropOp33
 70
     1
102
RTVSPost2010Prop34
280
     0
102
RTVSPost2010PropOp34
 70
     1
102
RTVSPost2010Prop35
280
     0
102
RTVSPost2010PropOp35
 70
     1
102
RTVSPost2010Prop36
280
     0
102
RTVSPost2010PropOp36
 70
     1
102
RTVSPost2010Prop37
 90
       50
102
RTVSPost2010PropOp37
 70
     1
102
RTVSPost2010Prop38
140
0.0
102
RTVSPost2010PropOp38
 70
     1
102
RTVSPost2010Prop39
140
1.0
102
RTVSPost2010PropOp39
 70
     1
102
RTVSPost2010Prop40
 90
        0
102
RTVSPost2010PropOp40
 70
     1
102
RTVSPost2010Prop41ColorIndex
 90
       18
102
RTVSPost2010Prop41ColorRGB
 90
        0
102
RTVSPost2010PropOp41
 70
     1
102
RTVSPost2010Prop42
 90
       50
102
RTVSPost2010PropOp42
 70
     1
102
RTVSPost2010Prop43
 90
        3
102
RTVSPost2010PropOp43
 70
     1
102
RTVSPost2010Prop44ColorIndex
 90
        5
102
RTVSPost2010Prop44ColorRGB
 90
      255
102
RTVSPost2010PropOp44
 70
     1
102
RTVSPost2010Prop45
280
     0
102
RTVSPost2010PropOp45
 70
     1
102
RTVSPost2010Prop46
 90
       50
102
RTVSPost2010PropOp46
 70
     1
102
RTVSPost2010Prop47
 90
       50
102
RTVSPost2010PropOp47
 70
     1
102
RTVSPost2010Prop48
 90
       50
102
RTVSPost2010PropOp48
 70
     1
102
RTVSPost2010Prop49
280
     0
102
RTVSPost2010PropOp49
 70
     1
102
RTVSPost2010Prop50
 90
       50
102
RTVSPost2010PropOp50
 70
     1
102
RTVSPost2010Prop51ColorIndex
 90
      256
102
RTVSPost2010Prop51ColorRGB
 90
-16777216
102
RTVSPost2010PropOp51
 70
     0
102
RTVSPost2010Prop52
140
1.0
102
RTVSPost2010PropOp52
 70
     0
102
RTVSPost2010Prop53
 90
        2
102
RTVSPost2010PropOp53
 70
     1
102
RTVSPost2010Prop54
  1
strokes_ogs.tif
102
RTVSPost2010PropOp54
 70
     1
102
RTVSPost2010Prop55
280
     0
102
RTVSPost2010PropOp55
 70
     1
102
RTVSPost2010Prop56
140
1.0
102
RTVSPost2010PropOp56
 70
     1
102
RTVSPost2010Prop57
140
1.0
102
RTVSPost2010PropOp57
 70
     1
102
RTVSPropertyOp0
 70
     1
102
RTVSPropertyOp1
 70
     1
102
RTVSPropertyOp2
 70
     1
102
RTVSPropertyOp3
 70
     1
102
RTVSPropertyOp4
 70
     1
102
RTVSPropertyOp5
 70
     1
102
RTVSPropertyOp6
 70
     1
102
RTVSPropertyOp7
 70
     1
102
RTVSPropertyOp8
 70
     1
102
RTVSPropertyOp9
 70
     1
102
RTVSPropertyOp10
 70
     1
102
RTVSPropertyOp11
 70
     1
102
RTVSPropertyOp12
 70
     1
102
RTVSPropertyOp13
 70
     1
102
RTVSPropertyOp14
 70
     1
102
RTVSPropertyOp15
 70
     1
102
RTVSPropertyOp16
 70
     1
102
RTVSPropertyOp17
 70
     1
102
RTVSPropertyOp18
 70
     1
102
RTVSPropertyOp19
 70
     1
102
RTVSPropertyOp20
 70
     1
102
RTVSPropertyOp21
 70
     1
102
RTVSPropertyOp22
 70
     1
102
RTVSPropertyOp23
 70
     1
102
RTVSPropertyOp24
 70
     1
102
RTVSPropertyOp25
 70
     1
102
RTVSPropertyOp26
 70
     1
102
RTVSPropertyOp27
 70
     1
102
RTVSPropertyOp28
 70
     1
102
RTVSPropertyOp29
 70
     1
102
RTVSPropertyOp30
 70
     1
102
RTVSPropertyOp31
 70
     1
102
RTVSPropertyOp32
 70
     1
102
RTVSPropertyOp33
 70
     1
102
RTVSPropertyOp34
 70
     1
102
RTVSPropertyOp35
 70
     1
102
RTVSPropertyOp36
 70
     1
102
RTVSPropertyOp37
 70
     1
102
RTVSPropertyOp38
 70
     1
102
RTVSPropertyOp39
 70
     1
102
RTVSPropertyOp40
 70
     1
102
RTVSPropertyOp41
 70
     1
102
RTVSPropertyOp42
 70
     1
102
RTVSPropertyOp43
 70
     1
102
RTVSPropertyOp44
 70
     1
102
RTVSPropertyOp45
 70
     1
102
RTVSPropertyOp46
 70
     1
102
RTVSPropertyOp47
 70
     1
102
RTVSPropertyOp48
 70
     1
102
RTVSPropertyOp49
 70
     1
102
RTVSPropertyOp50
 70
     1
102
RTVSPropertyOp51
 70
     0
102
RTVSPropertyOp52
 70
     0
102
RTVSPropertyOp53
 70
     1
102
RTVSPropertyOp54
 70
     1
102
RTVSPropertyOp55
 70
     1
102
RTVSPropertyOp56
 70
     1
102
RTVSPropertyOp57
 70
     1
102
RTVSPropertyOp58
 70
     1
102
RTVSPropertyOp59
 70
     1
102
RTVSPropertyOp60
 70
     1
102
RTVSPropertyOp61
 70
     1
102
RTVSPropertyOp62
 70
     1
  0
XRECORD
  5
5B15
102
{ACAD_REACTORS
330
5B14
102
}
330
5B14
100
AcDbXrecord
280
     1
102
RTVSPost2010Prop28
280
     0
102
RTVSPost2010PropOp28
 70
     1
102
RTVSPost2010Prop29
280
     1
102
RTVSPost2010PropOp29
 70
     1
102
RTVSPost2010Prop30
280
     1
102
RTVSPost2010PropOp30
 70
     1
102
RTVSPost2010Prop31
280
     0
102
RTVSPost2010PropOp31
 70
     1
102
RTVSPost2010Prop32
280
     0
102
RTVSPost2010PropOp32
 70
     1
102
RTVSPost2010Prop33
280
     0
102
RTVSPost2010PropOp33
 70
     1
102
RTVSPost2010Prop34
280
     0
102
RTVSPost2010PropOp34
 70
     1
102
RTVSPost2010Prop35
280
     0
102
RTVSPost2010PropOp35
 70
     1
102
RTVSPost2010Prop36
280
     0
102
RTVSPost2010PropOp36
 70
     1
102
RTVSPost2010Prop37
 90
       50
102
RTVSPost2010PropOp37
 70
     1
102
RTVSPost2010Prop38
140
0.0
102
RTVSPost2010PropOp38
 70
     1
102
RTVSPost2010Prop39
140
1.0
102
RTVSPost2010PropOp39
 70
     1
102
RTVSPost2010Prop40
 90
        0
102
RTVSPost2010PropOp40
 70
     1
102
RTVSPost2010Prop41ColorIndex
 90
       18
102
RTVSPost2010Prop41ColorRGB
 90
        0
102
RTVSPost2010PropOp41
 70
     1
102
RTVSPost2010Prop42
 90
       50
102
RTVSPost2010PropOp42
 70
     1
102
RTVSPost2010Prop43
 90
        3
102
RTVSPost2010PropOp43
 70
     1
102
RTVSPost2010Prop44ColorIndex
 90
        5
102
RTVSPost2010Prop44ColorRGB
 90
      255
102
RTVSPost2010PropOp44
 70
     1
102
RTVSPost2010Prop45
280
     0
102
RTVSPost2010PropOp45
 70
     1
102
RTVSPost2010Prop46
 90
       50
102
RTVSPost2010PropOp46
 70
     1
102
RTVSPost2010Prop47
 90
       50
102
RTVSPost2010PropOp47
 70
     1
102
RTVSPost2010Prop48
 90
       50
102
RTVSPost2010PropOp48
 70
     1
102
RTVSPost2010Prop49
280
     0
102
RTVSPost2010PropOp49
 70
     1
102
RTVSPost2010Prop50
 90
       50
102
RTVSPost2010PropOp50
 70
     1
102
RTVSPost2010Prop51ColorIndex
 90
      256
102
RTVSPost2010Prop51ColorRGB
 90
-16777216
102
RTVSPost2010PropOp51
 70
     0
102
RTVSPost2010Prop52
140
1.0
102
RTVSPost2010PropOp52
 70
     0
102
RTVSPost2010Prop53
 90
        2
102
RTVSPost2010PropOp53
 70
     1
102
RTVSPost2010Prop54
  1
strokes_ogs.tif
102
RTVSPost2010PropOp54
 70
     1
102
RTVSPost2010Prop55
280
     0
102
RTVSPost2010PropOp55
 70
     1
102
RTVSPost2010Prop56
140
1.0
102
RTVSPost2010PropOp56
 70
     1
102
RTVSPost2010Prop57
140
1.0
102
RTVSPost2010PropOp57
 70
     1
102
RTVSPropertyOp0
 70
     1
102
RTVSPropertyOp1
 70
     1
102
RTVSPropertyOp2
 70
     1
102
RTVSPropertyOp3
 70
     1
102
RTVSPropertyOp4
 70
     1
102
RTVSPropertyOp5
 70
     1
102
RTVSPropertyOp6
 70
     1
102
RTVSPropertyOp7
 70
     1
102
RTVSPropertyOp8
 70
     1
102
RTVSPropertyOp9
 70
     1
102
RTVSPropertyOp10
 70
     1
102
RTVSPropertyOp11
 70
     1
102
RTVSPropertyOp12
 70
     1
102
RTVSPropertyOp13
 70
     1
102
RTVSPropertyOp14
 70
     1
102
RTVSPropertyOp15
 70
     1
102
RTVSPropertyOp16
 70
     1
102
RTVSPropertyOp17
 70
     1
102
RTVSPropertyOp18
 70
     1
102
RTVSPropertyOp19
 70
     1
102
RTVSPropertyOp20
 70
     1
102
RTVSPropertyOp21
 70
     1
102
RTVSPropertyOp22
 70
     1
102
RTVSPropertyOp23
 70
     1
102
RTVSPropertyOp24
 70
     1
102
RTVSPropertyOp25
 70
     1
102
RTVSPropertyOp26
 70
     1
102
RTVSPropertyOp27
 70
     1
102
RTVSPropertyOp28
 70
     1
102
RTVSPropertyOp29
 70
     1
102
RTVSPropertyOp30
 70
     1
102
RTVSPropertyOp31
 70
     1
102
RTVSPropertyOp32
 70
     1
102
RTVSPropertyOp33
 70
     1
102
RTVSPropertyOp34
 70
     1
102
RTVSPropertyOp35
 70
     1
102
RTVSPropertyOp36
 70
     1
102
RTVSPropertyOp37
 70
     1
102
RTVSPropertyOp38
 70
     1
102
RTVSPropertyOp39
 70
     1
102
RTVSPropertyOp40
 70
     1
102
RTVSPropertyOp41
 70
     1
102
RTVSPropertyOp42
 70
     1
102
RTVSPropertyOp43
 70
     1
102
RTVSPropertyOp44
 70
     1
102
RTVSPropertyOp45
 70
     1
102
RTVSPropertyOp46
 70
     1
102
RTVSPropertyOp47
 70
     1
102
RTVSPropertyOp48
 70
     1
102
RTVSPropertyOp49
 70
     1
102
RTVSPropertyOp50
 70
     1
102
RTVSPropertyOp51
 70
     0
102
RTVSPropertyOp52
 70
     0
102
RTVSPropertyOp53
 70
     1
102
RTVSPropertyOp54
 70
     1
102
RTVSPropertyOp55
 70
     1
102
RTVSPropertyOp56
 70
     1
102
RTVSPropertyOp57
 70
     1
102
RTVSPropertyOp58
 70
     1
102
RTVSPropertyOp59
 70
     1
102
RTVSPropertyOp60
 70
     1
102
RTVSPropertyOp61
 70
     1
102
RTVSPropertyOp62
 70
     1
  0
XRECORD
  5
5B21
102
{ACAD_REACTORS
330
5B20
102
}
330
5B20
100
AcDbXrecord
280
     1
102
RTVSPost2010Prop28
280
     0
102
RTVSPost2010PropOp28
 70
     0
102
RTVSPost2010Prop29
280
     1
102
RTVSPost2010PropOp29
 70
     0
102
RTVSPost2010Prop30
280
     1
102
RTVSPost2010PropOp30
 70
     0
102
RTVSPost2010Prop31
280
     0
102
RTVSPost2010PropOp31
 70
     0
102
RTVSPost2010Prop32
280
     0
102
RTVSPost2010PropOp32
 70
     0
102
RTVSPost2010Prop33
280
     0
102
RTVSPost2010PropOp33
 70
     1
102
RTVSPost2010Prop34
280
     0
102
RTVSPost2010PropOp34
 70
     1
102
RTVSPost2010Prop35
280
     0
102
RTVSPost2010PropOp35
 70
     1
102
RTVSPost2010Prop36
280
     0
102
RTVSPost2010PropOp36
 70
     1
102
RTVSPost2010Prop37
 90
       50
102
RTVSPost2010PropOp37
 70
     1
102
RTVSPost2010Prop38
140
0.0
102
RTVSPost2010PropOp38
 70
     1
102
RTVSPost2010Prop39
140
1.0
102
RTVSPost2010PropOp39
 70
     1
102
RTVSPost2010Prop40
 90
        0
102
RTVSPost2010PropOp40
 70
     1
102
RTVSPost2010Prop41ColorIndex
 90
       18
102
RTVSPost2010Prop41ColorRGB
 90
        0
102
RTVSPost2010PropOp41
 70
     1
102
RTVSPost2010Prop42
 90
       50
102
RTVSPost2010PropOp42
 70
     1
102
RTVSPost2010Prop43
 90
        3
102
RTVSPost2010PropOp43
 70
     1
102
RTVSPost2010Prop44ColorIndex
 90
        5
102
RTVSPost2010Prop44ColorRGB
 90
      255
102
RTVSPost2010PropOp44
 70
     1
102
RTVSPost2010Prop45
280
     0
102
RTVSPost2010PropOp45
 70
     1
102
RTVSPost2010Prop46
 90
       50
102
RTVSPost2010PropOp46
 70
     1
102
RTVSPost2010Prop47
 90
       50
102
RTVSPost2010PropOp47
 70
     1
102
RTVSPost2010Prop48
 90
       50
102
RTVSPost2010PropOp48
 70
     1
102
RTVSPost2010Prop49
280
     0
102
RTVSPost2010PropOp49
 70
     1
102
RTVSPost2010Prop50
 90
       50
102
RTVSPost2010PropOp50
 70
     1
102
RTVSPost2010Prop51ColorIndex
 90
      256
102
RTVSPost2010Prop51ColorRGB
 90
-16777216
102
RTVSPost2010PropOp51
 70
     0
102
RTVSPost2010Prop52
140
1.0
102
RTVSPost2010PropOp52
 70
     0
102
RTVSPost2010Prop53
 90
        2
102
RTVSPost2010PropOp53
 70
     1
102
RTVSPost2010Prop54
  1
strokes_ogs.tif
102
RTVSPost2010PropOp54
 70
     1
102
RTVSPost2010Prop55
280
     0
102
RTVSPost2010PropOp55
 70
     1
102
RTVSPost2010Prop56
140
1.0
102
RTVSPost2010PropOp56
 70
     1
102
RTVSPost2010Prop57
140
1.0
102
RTVSPost2010PropOp57
 70
     1
102
RTVSPropertyOp0
 70
     0
102
RTVSPropertyOp1
 70
     0
102
RTVSPropertyOp2
 70
     0
102
RTVSPropertyOp3
 70
     0
102
RTVSPropertyOp4
 70
     0
102
RTVSPropertyOp5
 70
     0
102
RTVSPropertyOp6
 70
     0
102
RTVSPropertyOp7
 70
     0
102
RTVSPropertyOp8
 70
     0
102
RTVSPropertyOp9
 70
     0
102
RTVSPropertyOp10
 70
     0
102
RTVSPropertyOp11
 70
     0
102
RTVSPropertyOp12
 70
     0
102
RTVSPropertyOp13
 70
     0
102
RTVSPropertyOp14
 70
     2
102
RTVSPropertyOp15
 70
     0
102
RTVSPropertyOp16
 70
     0
102
RTVSPropertyOp17
 70
     0
102
RTVSPropertyOp18
 70
     0
102
RTVSPropertyOp19
 70
     0
102
RTVSPropertyOp20
 70
     0
102
RTVSPropertyOp21
 70
     0
102
RTVSPropertyOp22
 70
     0
102
RTVSPropertyOp23
 70
     0
102
RTVSPropertyOp24
 70
     0
102
RTVSPropertyOp25
 70
     0
102
RTVSPropertyOp26
 70
     0
102
RTVSPropertyOp27
 70
     0
102
RTVSPropertyOp28
 70
     0
102
RTVSPropertyOp29
 70
     0
102
RTVSPropertyOp30
 70
     0
102
RTVSPropertyOp31
 70
     0
102
RTVSPropertyOp32
 70
     0
102
RTVSPropertyOp33
 70
     1
102
RTVSPropertyOp34
 70
     1
102
RTVSPropertyOp35
 70
     1
102
RTVSPropertyOp36
 70
     1
102
RTVSPropertyOp37
 70
     1
102
RTVSPropertyOp38
 70
     1
102
RTVSPropertyOp39
 70
     1
102
RTVSPropertyOp40
 70
     1
102
RTVSPropertyOp41
 70
     1
102
RTVSPropertyOp42
 70
     1
102
RTVSPropertyOp43
 70
     1
102
RTVSPropertyOp44
 70
     1
102
RTVSPropertyOp45
 70
     1
102
RTVSPropertyOp46
 70
     1
102
RTVSPropertyOp47
 70
     1
102
RTVSPropertyOp48
 70
     1
102
RTVSPropertyOp49
 70
     1
102
RTVSPropertyOp50
 70
     1
102
RTVSPropertyOp51
 70
     0
102
RTVSPropertyOp52
 70
     0
102
RTVSPropertyOp53
 70
     1
102
RTVSPropertyOp54
 70
     1
102
RTVSPropertyOp55
 70
     1
102
RTVSPropertyOp56
 70
     1
102
RTVSPropertyOp57
 70
     1
102
RTVSPropertyOp58
 70
     1
102
RTVSPropertyOp59
 70
     1
102
RTVSPropertyOp60
 70
     1
102
RTVSPropertyOp61
 70
     1
102
RTVSPropertyOp62
 70
     1
  0
XRECORD
  5
5B0D
102
{ACAD_REACTORS
330
5B0C
102
}
330
5B0C
100
AcDbXrecord
280
     1
102
RTVSPost2010Prop28
280
     0
102
RTVSPost2010PropOp28
 70
     1
102
RTVSPost2010Prop29
280
     1
102
RTVSPost2010PropOp29
 70
     1
102
RTVSPost2010Prop30
280
     1
102
RTVSPost2010PropOp30
 70
     1
102
RTVSPost2010Prop31
280
     0
102
RTVSPost2010PropOp31
 70
     1
102
RTVSPost2010Prop32
280
     0
102
RTVSPost2010PropOp32
 70
     1
102
RTVSPost2010Prop33
280
     0
102
RTVSPost2010PropOp33
 70
     1
102
RTVSPost2010Prop34
280
     0
102
RTVSPost2010PropOp34
 70
     1
102
RTVSPost2010Prop35
280
     0
102
RTVSPost2010PropOp35
 70
     1
102
RTVSPost2010Prop36
280
     0
102
RTVSPost2010PropOp36
 70
     1
102
RTVSPost2010Prop37
 90
       50
102
RTVSPost2010PropOp37
 70
     1
102
RTVSPost2010Prop38
140
0.0
102
RTVSPost2010PropOp38
 70
     1
102
RTVSPost2010Prop39
140
1.0
102
RTVSPost2010PropOp39
 70
     1
102
RTVSPost2010Prop40
 90
        0
102
RTVSPost2010PropOp40
 70
     1
102
RTVSPost2010Prop41ColorIndex
 90
       18
102
RTVSPost2010Prop41ColorRGB
 90
        0
102
RTVSPost2010PropOp41
 70
     1
102
RTVSPost2010Prop42
 90
       50
102
RTVSPost2010PropOp42
 70
     1
102
RTVSPost2010Prop43
 90
        3
102
RTVSPost2010PropOp43
 70
     1
102
RTVSPost2010Prop44ColorIndex
 90
        5
102
RTVSPost2010Prop44ColorRGB
 90
      255
102
RTVSPost2010PropOp44
 70
     1
102
RTVSPost2010Prop45
280
     0
102
RTVSPost2010PropOp45
 70
     1
102
RTVSPost2010Prop46
 90
       50
102
RTVSPost2010PropOp46
 70
     1
102
RTVSPost2010Prop47
 90
       50
102
RTVSPost2010PropOp47
 70
     1
102
RTVSPost2010Prop48
 90
       50
102
RTVSPost2010PropOp48
 70
     1
102
RTVSPost2010Prop49
280
     0
102
RTVSPost2010PropOp49
 70
     1
102
RTVSPost2010Prop50
 90
       50
102
RTVSPost2010PropOp50
 70
     1
102
RTVSPost2010Prop51ColorIndex
 90
      256
102
RTVSPost2010Prop51ColorRGB
 90
-16777216
102
RTVSPost2010PropOp51
 70
     0
102
RTVSPost2010Prop52
140
1.0
102
RTVSPost2010PropOp52
 70
     0
102
RTVSPost2010Prop53
 90
        2
102
RTVSPost2010PropOp53
 70
     1
102
RTVSPost2010Prop54
  1
strokes_ogs.tif
102
RTVSPost2010PropOp54
 70
     1
102
RTVSPost2010Prop55
280
     0
102
RTVSPost2010PropOp55
 70
     1
102
RTVSPost2010Prop56
140
1.0
102
RTVSPost2010PropOp56
 70
     1
102
RTVSPost2010Prop57
140
1.0
102
RTVSPost2010PropOp57
 70
     1
102
RTVSPropertyOp0
 70
     1
102
RTVSPropertyOp1
 70
     1
102
RTVSPropertyOp2
 70
     1
102
RTVSPropertyOp3
 70
     1
102
RTVSPropertyOp4
 70
     1
102
RTVSPropertyOp5
 70
     1
102
RTVSPropertyOp6
 70
     1
102
RTVSPropertyOp7
 70
     1
102
RTVSPropertyOp8
 70
     1
102
RTVSPropertyOp9
 70
     1
102
RTVSPropertyOp10
 70
     1
102
RTVSPropertyOp11
 70
     1
102
RTVSPropertyOp12
 70
     1
102
RTVSPropertyOp13
 70
     1
102
RTVSPropertyOp14
 70
     1
102
RTVSPropertyOp15
 70
     1
102
RTVSPropertyOp16
 70
     1
102
RTVSPropertyOp17
 70
     1
102
RTVSPropertyOp18
 70
     1
102
RTVSPropertyOp19
 70
     1
102
RTVSPropertyOp20
 70
     1
102
RTVSPropertyOp21
 70
     1
102
RTVSPropertyOp22
 70
     1
102
RTVSPropertyOp23
 70
     1
102
RTVSPropertyOp24
 70
     1
102
RTVSPropertyOp25
 70
     1
102
RTVSPropertyOp26
 70
     1
102
RTVSPropertyOp27
 70
     1
102
RTVSPropertyOp28
 70
     1
102
RTVSPropertyOp29
 70
     1
102
RTVSPropertyOp30
 70
     1
102
RTVSPropertyOp31
 70
     1
102
RTVSPropertyOp32
 70
     1
102
RTVSPropertyOp33
 70
     1
102
RTVSPropertyOp34
 70
     1
102
RTVSPropertyOp35
 70
     1
102
RTVSPropertyOp36
 70
     1
102
RTVSPropertyOp37
 70
     1
102
RTVSPropertyOp38
 70
     1
102
RTVSPropertyOp39
 70
     1
102
RTVSPropertyOp40
 70
     1
102
RTVSPropertyOp41
 70
     1
102
RTVSPropertyOp42
 70
     1
102
RTVSPropertyOp43
 70
     1
102
RTVSPropertyOp44
 70
     1
102
RTVSPropertyOp45
 70
     1
102
RTVSPropertyOp46
 70
     1
102
RTVSPropertyOp47
 70
     1
102
RTVSPropertyOp48
 70
     1
102
RTVSPropertyOp49
 70
     1
102
RTVSPropertyOp50
 70
     1
102
RTVSPropertyOp51
 70
     0
102
RTVSPropertyOp52
 70
     0
102
RTVSPropertyOp53
 70
     1
102
RTVSPropertyOp54
 70
     1
102
RTVSPropertyOp55
 70
     1
102
RTVSPropertyOp56
 70
     1
102
RTVSPropertyOp57
 70
     1
102
RTVSPropertyOp58
 70
     1
102
RTVSPropertyOp59
 70
     1
102
RTVSPropertyOp60
 70
     1
102
RTVSPropertyOp61
 70
     1
102
RTVSPropertyOp62
 70
     1
  0
XRECORD
  5
5B23
102
{ACAD_REACTORS
330
5B22
102
}
330
5B22
100
AcDbXrecord
280
     1
102
RTVSPost2010Prop28
280
     0
102
RTVSPost2010PropOp28
 70
     0
102
RTVSPost2010Prop29
280
     1
102
RTVSPost2010PropOp29
 70
     0
102
RTVSPost2010Prop30
280
     1
102
RTVSPost2010PropOp30
 70
     0
102
RTVSPost2010Prop31
280
     0
102
RTVSPost2010PropOp31
 70
     0
102
RTVSPost2010Prop32
280
     0
102
RTVSPost2010PropOp32
 70
     0
102
RTVSPost2010Prop33
280
     0
102
RTVSPost2010PropOp33
 70
     1
102
RTVSPost2010Prop34
280
     0
102
RTVSPost2010PropOp34
 70
     1
102
RTVSPost2010Prop35
280
     0
102
RTVSPost2010PropOp35
 70
     1
102
RTVSPost2010Prop36
280
     0
102
RTVSPost2010PropOp36
 70
     1
102
RTVSPost2010Prop37
 90
       50
102
RTVSPost2010PropOp37
 70
     1
102
RTVSPost2010Prop38
140
0.0
102
RTVSPost2010PropOp38
 70
     1
102
RTVSPost2010Prop39
140
1.0
102
RTVSPost2010PropOp39
 70
     1
102
RTVSPost2010Prop40
 90
        0
102
RTVSPost2010PropOp40
 70
     1
102
RTVSPost2010Prop41ColorIndex
 90
       18
102
RTVSPost2010Prop41ColorRGB
 90
        0
102
RTVSPost2010PropOp41
 70
     1
102
RTVSPost2010Prop42
 90
       50
102
RTVSPost2010PropOp42
 70
     1
102
RTVSPost2010Prop43
 90
        3
102
RTVSPost2010PropOp43
 70
     1
102
RTVSPost2010Prop44ColorIndex
 90
        5
102
RTVSPost2010Prop44ColorRGB
 90
      255
102
RTVSPost2010PropOp44
 70
     1
102
RTVSPost2010Prop45
280
     0
102
RTVSPost2010PropOp45
 70
     1
102
RTVSPost2010Prop46
 90
       50
102
RTVSPost2010PropOp46
 70
     1
102
RTVSPost2010Prop47
 90
       50
102
RTVSPost2010PropOp47
 70
     1
102
RTVSPost2010Prop48
 90
       50
102
RTVSPost2010PropOp48
 70
     1
102
RTVSPost2010Prop49
280
     0
102
RTVSPost2010PropOp49
 70
     1
102
RTVSPost2010Prop50
 90
       50
102
RTVSPost2010PropOp50
 70
     1
102
RTVSPost2010Prop51ColorIndex
 90
      256
102
RTVSPost2010Prop51ColorRGB
 90
-16777216
102
RTVSPost2010PropOp51
 70
     0
102
RTVSPost2010Prop52
140
1.0
102
RTVSPost2010PropOp52
 70
     0
102
RTVSPost2010Prop53
 90
        2
102
RTVSPost2010PropOp53
 70
     1
102
RTVSPost2010Prop54
  1
strokes_ogs.tif
102
RTVSPost2010PropOp54
 70
     1
102
RTVSPost2010Prop55
280
     0
102
RTVSPost2010PropOp55
 70
     1
102
RTVSPost2010Prop56
140
1.0
102
RTVSPost2010PropOp56
 70
     1
102
RTVSPost2010Prop57
140
1.0
102
RTVSPost2010PropOp57
 70
     1
102
RTVSPropertyOp0
 70
     0
102
RTVSPropertyOp1
 70
     0
102
RTVSPropertyOp2
 70
     0
102
RTVSPropertyOp3
 70
     0
102
RTVSPropertyOp4
 70
     0
102
RTVSPropertyOp5
 70
     0
102
RTVSPropertyOp6
 70
     0
102
RTVSPropertyOp7
 70
     0
102
RTVSPropertyOp8
 70
     0
102
RTVSPropertyOp9
 70
     0
102
RTVSPropertyOp10
 70
     0
102
RTVSPropertyOp11
 70
     0
102
RTVSPropertyOp12
 70
     0
102
RTVSPropertyOp13
 70
     0
102
RTVSPropertyOp14
 70
     2
102
RTVSPropertyOp15
 70
     0
102
RTVSPropertyOp16
 70
     0
102
RTVSPropertyOp17
 70
     0
102
RTVSPropertyOp18
 70
     0
102
RTVSPropertyOp19
 70
     0
102
RTVSPropertyOp20
 70
     0
102
RTVSPropertyOp21
 70
     0
102
RTVSPropertyOp22
 70
     0
102
RTVSPropertyOp23
 70
     0
102
RTVSPropertyOp24
 70
     0
102
RTVSPropertyOp25
 70
     0
102
RTVSPropertyOp26
 70
     0
102
RTVSPropertyOp27
 70
     0
102
RTVSPropertyOp28
 70
     0
102
RTVSPropertyOp29
 70
     0
102
RTVSPropertyOp30
 70
     0
102
RTVSPropertyOp31
 70
     0
102
RTVSPropertyOp32
 70
     0
102
RTVSPropertyOp33
 70
     1
102
RTVSPropertyOp34
 70
     1
102
RTVSPropertyOp35
 70
     1
102
RTVSPropertyOp36
 70
     1
102
RTVSPropertyOp37
 70
     1
102
RTVSPropertyOp38
 70
     1
102
RTVSPropertyOp39
 70
     1
102
RTVSPropertyOp40
 70
     1
102
RTVSPropertyOp41
 70
     1
102
RTVSPropertyOp42
 70
     1
102
RTVSPropertyOp43
 70
     1
102
RTVSPropertyOp44
 70
     1
102
RTVSPropertyOp45
 70
     1
102
RTVSPropertyOp46
 70
     1
102
RTVSPropertyOp47
 70
     1
102
RTVSPropertyOp48
 70
     1
102
RTVSPropertyOp49
 70
     1
102
RTVSPropertyOp50
 70
     1
102
RTVSPropertyOp51
 70
     0
102
RTVSPropertyOp52
 70
     0
102
RTVSPropertyOp53
 70
     1
102
RTVSPropertyOp54
 70
     1
102
RTVSPropertyOp55
 70
     1
102
RTVSPropertyOp56
 70
     1
102
RTVSPropertyOp57
 70
     1
102
RTVSPropertyOp58
 70
     1
102
RTVSPropertyOp59
 70
     1
102
RTVSPropertyOp60
 70
     1
102
RTVSPropertyOp61
 70
     1
102
RTVSPropertyOp62
 70
     1
  0
XRECORD
  5
5B05
102
{ACAD_REACTORS
330
5B04
102
}
330
5B04
100
AcDbXrecord
280
     1
102
RTVSPost2010Prop28
280
     0
102
RTVSPost2010PropOp28
 70
     1
102
RTVSPost2010Prop29
280
     1
102
RTVSPost2010PropOp29
 70
     1
102
RTVSPost2010Prop30
280
     1
102
RTVSPost2010PropOp30
 70
     1
102
RTVSPost2010Prop31
280
     0
102
RTVSPost2010PropOp31
 70
     1
102
RTVSPost2010Prop32
280
     0
102
RTVSPost2010PropOp32
 70
     1
102
RTVSPost2010Prop33
280
     0
102
RTVSPost2010PropOp33
 70
     1
102
RTVSPost2010Prop34
280
     0
102
RTVSPost2010PropOp34
 70
     1
102
RTVSPost2010Prop35
280
     0
102
RTVSPost2010PropOp35
 70
     1
102
RTVSPost2010Prop36
280
     0
102
RTVSPost2010PropOp36
 70
     1
102
RTVSPost2010Prop37
 90
       50
102
RTVSPost2010PropOp37
 70
     1
102
RTVSPost2010Prop38
140
0.0
102
RTVSPost2010PropOp38
 70
     1
102
RTVSPost2010Prop39
140
1.0
102
RTVSPost2010PropOp39
 70
     1
102
RTVSPost2010Prop40
 90
        0
102
RTVSPost2010PropOp40
 70
     1
102
RTVSPost2010Prop41ColorIndex
 90
       18
102
RTVSPost2010Prop41ColorRGB
 90
        0
102
RTVSPost2010PropOp41
 70
     1
102
RTVSPost2010Prop42
 90
       50
102
RTVSPost2010PropOp42
 70
     1
102
RTVSPost2010Prop43
 90
        3
102
RTVSPost2010PropOp43
 70
     1
102
RTVSPost2010Prop44ColorIndex
 90
        5
102
RTVSPost2010Prop44ColorRGB
 90
      255
102
RTVSPost2010PropOp44
 70
     1
102
RTVSPost2010Prop45
280
     0
102
RTVSPost2010PropOp45
 70
     1
102
RTVSPost2010Prop46
 90
       50
102
RTVSPost2010PropOp46
 70
     1
102
RTVSPost2010Prop47
 90
       50
102
RTVSPost2010PropOp47
 70
     1
102
RTVSPost2010Prop48
 90
       50
102
RTVSPost2010PropOp48
 70
     1
102
RTVSPost2010Prop49
280
     0
102
RTVSPost2010PropOp49
 70
     1
102
RTVSPost2010Prop50
 90
       50
102
RTVSPost2010PropOp50
 70
     1
102
RTVSPost2010Prop51ColorIndex
 90
      256
102
RTVSPost2010Prop51ColorRGB
 90
-16777216
102
RTVSPost2010PropOp51
 70
     0
102
RTVSPost2010Prop52
140
1.0
102
RTVSPost2010PropOp52
 70
     0
102
RTVSPost2010Prop53
 90
        2
102
RTVSPost2010PropOp53
 70
     1
102
RTVSPost2010Prop54
  1
strokes_ogs.tif
102
RTVSPost2010PropOp54
 70
     1
102
RTVSPost2010Prop55
280
     0
102
RTVSPost2010PropOp55
 70
     1
102
RTVSPost2010Prop56
140
1.0
102
RTVSPost2010PropOp56
 70
     1
102
RTVSPost2010Prop57
140
1.0
102
RTVSPost2010PropOp57
 70
     1
102
RTVSPropertyOp0
 70
     1
102
RTVSPropertyOp1
 70
     1
102
RTVSPropertyOp2
 70
     1
102
RTVSPropertyOp3
 70
     1
102
RTVSPropertyOp4
 70
     1
102
RTVSPropertyOp5
 70
     1
102
RTVSPropertyOp6
 70
     1
102
RTVSPropertyOp7
 70
     1
102
RTVSPropertyOp8
 70
     1
102
RTVSPropertyOp9
 70
     1
102
RTVSPropertyOp10
 70
     1
102
RTVSPropertyOp11
 70
     1
102
RTVSPropertyOp12
 70
     1
102
RTVSPropertyOp13
 70
     1
102
RTVSPropertyOp14
 70
     1
102
RTVSPropertyOp15
 70
     1
102
RTVSPropertyOp16
 70
     1
102
RTVSPropertyOp17
 70
     1
102
RTVSPropertyOp18
 70
     1
102
RTVSPropertyOp19
 70
     1
102
RTVSPropertyOp20
 70
     1
102
RTVSPropertyOp21
 70
     1
102
RTVSPropertyOp22
 70
     1
102
RTVSPropertyOp23
 70
     1
102
RTVSPropertyOp24
 70
     1
102
RTVSPropertyOp25
 70
     1
102
RTVSPropertyOp26
 70
     1
102
RTVSPropertyOp27
 70
     1
102
RTVSPropertyOp28
 70
     1
102
RTVSPropertyOp29
 70
     1
102
RTVSPropertyOp30
 70
     1
102
RTVSPropertyOp31
 70
     1
102
RTVSPropertyOp32
 70
     1
102
RTVSPropertyOp33
 70
     1
102
RTVSPropertyOp34
 70
     1
102
RTVSPropertyOp35
 70
     1
102
RTVSPropertyOp36
 70
     1
102
RTVSPropertyOp37
 70
     1
102
RTVSPropertyOp38
 70
     1
102
RTVSPropertyOp39
 70
     1
102
RTVSPropertyOp40
 70
     1
102
RTVSPropertyOp41
 70
     1
102
RTVSPropertyOp42
 70
     1
102
RTVSPropertyOp43
 70
     1
102
RTVSPropertyOp44
 70
     1
102
RTVSPropertyOp45
 70
     1
102
RTVSPropertyOp46
 70
     1
102
RTVSPropertyOp47
 70
     1
102
RTVSPropertyOp48
 70
     1
102
RTVSPropertyOp49
 70
     1
102
RTVSPropertyOp50
 70
     1
102
RTVSPropertyOp51
 70
     0
102
RTVSPropertyOp52
 70
     0
102
RTVSPropertyOp53
 70
     1
102
RTVSPropertyOp54
 70
     1
102
RTVSPropertyOp55
 70
     1
102
RTVSPropertyOp56
 70
     1
102
RTVSPropertyOp57
 70
     1
102
RTVSPropertyOp58
 70
     1
102
RTVSPropertyOp59
 70
     1
102
RTVSPropertyOp60
 70
     1
102
RTVSPropertyOp61
 70
     1
102
RTVSPropertyOp62
 70
     1
  0
XRECORD
  5
5B1F
102
{ACAD_REACTORS
330
5B1E
102
}
330
5B1E
100
AcDbXrecord
280
     1
102
RTVSPost2010Prop28
280
     0
102
RTVSPost2010PropOp28
 70
     1
102
RTVSPost2010Prop29
280
     1
102
RTVSPost2010PropOp29
 70
     1
102
RTVSPost2010Prop30
280
     1
102
RTVSPost2010PropOp30
 70
     1
102
RTVSPost2010Prop31
280
     0
102
RTVSPost2010PropOp31
 70
     1
102
RTVSPost2010Prop32
280
     0
102
RTVSPost2010PropOp32
 70
     1
102
RTVSPost2010Prop33
280
     0
102
RTVSPost2010PropOp33
 70
     1
102
RTVSPost2010Prop34
280
     0
102
RTVSPost2010PropOp34
 70
     1
102
RTVSPost2010Prop35
280
     0
102
RTVSPost2010PropOp35
 70
     1
102
RTVSPost2010Prop36
280
     0
102
RTVSPost2010PropOp36
 70
     1
102
RTVSPost2010Prop37
 90
       50
102
RTVSPost2010PropOp37
 70
     1
102
RTVSPost2010Prop38
140
0.0
102
RTVSPost2010PropOp38
 70
     1
102
RTVSPost2010Prop39
140
1.0
102
RTVSPost2010PropOp39
 70
     1
102
RTVSPost2010Prop40
 90
        0
102
RTVSPost2010PropOp40
 70
     1
102
RTVSPost2010Prop41ColorIndex
 90
       18
102
RTVSPost2010Prop41ColorRGB
 90
        0
102
RTVSPost2010PropOp41
 70
     1
102
RTVSPost2010Prop42
 90
       50
102
RTVSPost2010PropOp42
 70
     1
102
RTVSPost2010Prop43
 90
        3
102
RTVSPost2010PropOp43
 70
     1
102
RTVSPost2010Prop44ColorIndex
 90
        5
102
RTVSPost2010Prop44ColorRGB
 90
      255
102
RTVSPost2010PropOp44
 70
     1
102
RTVSPost2010Prop45
280
     0
102
RTVSPost2010PropOp45
 70
     1
102
RTVSPost2010Prop46
 90
       50
102
RTVSPost2010PropOp46
 70
     1
102
RTVSPost2010Prop47
 90
       50
102
RTVSPost2010PropOp47
 70
     1
102
RTVSPost2010Prop48
 90
       50
102
RTVSPost2010PropOp48
 70
     1
102
RTVSPost2010Prop49
280
     0
102
RTVSPost2010PropOp49
 70
     1
102
RTVSPost2010Prop50
 90
       50
102
RTVSPost2010PropOp50
 70
     1
102
RTVSPost2010Prop51ColorIndex
 90
      256
102
RTVSPost2010Prop51ColorRGB
 90
-16777216
102
RTVSPost2010PropOp51
 70
     0
102
RTVSPost2010Prop52
140
1.0
102
RTVSPost2010PropOp52
 70
     0
102
RTVSPost2010Prop53
 90
        2
102
RTVSPost2010PropOp53
 70
     1
102
RTVSPost2010Prop54
  1
strokes_ogs.tif
102
RTVSPost2010PropOp54
 70
     1
102
RTVSPost2010Prop55
280
     0
102
RTVSPost2010PropOp55
 70
     1
102
RTVSPost2010Prop56
140
1.0
102
RTVSPost2010PropOp56
 70
     1
102
RTVSPost2010Prop57
140
1.0
102
RTVSPost2010PropOp57
 70
     1
102
RTVSPropertyOp0
 70
     1
102
RTVSPropertyOp1
 70
     1
102
RTVSPropertyOp2
 70
     1
102
RTVSPropertyOp3
 70
     1
102
RTVSPropertyOp4
 70
     1
102
RTVSPropertyOp5
 70
     1
102
RTVSPropertyOp6
 70
     1
102
RTVSPropertyOp7
 70
     1
102
RTVSPropertyOp8
 70
     1
102
RTVSPropertyOp9
 70
     1
102
RTVSPropertyOp10
 70
     1
102
RTVSPropertyOp11
 70
     1
102
RTVSPropertyOp12
 70
     1
102
RTVSPropertyOp13
 70
     1
102
RTVSPropertyOp14
 70
     1
102
RTVSPropertyOp15
 70
     1
102
RTVSPropertyOp16
 70
     1
102
RTVSPropertyOp17
 70
     1
102
RTVSPropertyOp18
 70
     1
102
RTVSPropertyOp19
 70
     1
102
RTVSPropertyOp20
 70
     1
102
RTVSPropertyOp21
 70
     1
102
RTVSPropertyOp22
 70
     1
102
RTVSPropertyOp23
 70
     1
102
RTVSPropertyOp24
 70
     1
102
RTVSPropertyOp25
 70
     1
102
RTVSPropertyOp26
 70
     1
102
RTVSPropertyOp27
 70
     1
102
RTVSPropertyOp28
 70
     1
102
RTVSPropertyOp29
 70
     1
102
RTVSPropertyOp30
 70
     1
102
RTVSPropertyOp31
 70
     1
102
RTVSPropertyOp32
 70
     1
102
RTVSPropertyOp33
 70
     1
102
RTVSPropertyOp34
 70
     1
102
RTVSPropertyOp35
 70
     1
102
RTVSPropertyOp36
 70
     1
102
RTVSPropertyOp37
 70
     1
102
RTVSPropertyOp38
 70
     1
102
RTVSPropertyOp39
 70
     1
102
RTVSPropertyOp40
 70
     1
102
RTVSPropertyOp41
 70
     1
102
RTVSPropertyOp42
 70
     1
102
RTVSPropertyOp43
 70
     1
102
RTVSPropertyOp44
 70
     1
102
RTVSPropertyOp45
 70
     1
102
RTVSPropertyOp46
 70
     1
102
RTVSPropertyOp47
 70
     1
102
RTVSPropertyOp48
 70
     1
102
RTVSPropertyOp49
 70
     1
102
RTVSPropertyOp50
 70
     1
102
RTVSPropertyOp51
 70
     0
102
RTVSPropertyOp52
 70
     0
102
RTVSPropertyOp53
 70
     1
102
RTVSPropertyOp54
 70
     1
102
RTVSPropertyOp55
 70
     1
102
RTVSPropertyOp56
 70
     1
102
RTVSPropertyOp57
 70
     1
102
RTVSPropertyOp58
 70
     1
102
RTVSPropertyOp59
 70
     1
102
RTVSPropertyOp60
 70
     1
102
RTVSPropertyOp61
 70
     1
102
RTVSPropertyOp62
 70
     1
  0
XRECORD
  5
5B1D
102
{ACAD_REACTORS
330
5B1C
102
}
330
5B1C
100
AcDbXrecord
280
     1
102
RTVSPost2010Prop28
280
     0
102
RTVSPost2010PropOp28
 70
     1
102
RTVSPost2010Prop29
280
     1
102
RTVSPost2010PropOp29
 70
     1
102
RTVSPost2010Prop30
280
     1
102
RTVSPost2010PropOp30
 70
     1
102
RTVSPost2010Prop31
280
     0
102
RTVSPost2010PropOp31
 70
     1
102
RTVSPost2010Prop32
280
     0
102
RTVSPost2010PropOp32
 70
     1
102
RTVSPost2010Prop33
280
     0
102
RTVSPost2010PropOp33
 70
     1
102
RTVSPost2010Prop34
280
     0
102
RTVSPost2010PropOp34
 70
     1
102
RTVSPost2010Prop35
280
     0
102
RTVSPost2010PropOp35
 70
     1
102
RTVSPost2010Prop36
280
     0
102
RTVSPost2010PropOp36
 70
     1
102
RTVSPost2010Prop37
 90
       50
102
RTVSPost2010PropOp37
 70
     1
102
RTVSPost2010Prop38
140
0.0
102
RTVSPost2010PropOp38
 70
     1
102
RTVSPost2010Prop39
140
1.0
102
RTVSPost2010PropOp39
 70
     1
102
RTVSPost2010Prop40
 90
        0
102
RTVSPost2010PropOp40
 70
     1
102
RTVSPost2010Prop41ColorIndex
 90
       18
102
RTVSPost2010Prop41ColorRGB
 90
        0
102
RTVSPost2010PropOp41
 70
     1
102
RTVSPost2010Prop42
 90
       50
102
RTVSPost2010PropOp42
 70
     1
102
RTVSPost2010Prop43
 90
        3
102
RTVSPost2010PropOp43
 70
     1
102
RTVSPost2010Prop44ColorIndex
 90
        5
102
RTVSPost2010Prop44ColorRGB
 90
      255
102
RTVSPost2010PropOp44
 70
     1
102
RTVSPost2010Prop45
280
     0
102
RTVSPost2010PropOp45
 70
     1
102
RTVSPost2010Prop46
 90
       50
102
RTVSPost2010PropOp46
 70
     1
102
RTVSPost2010Prop47
 90
       50
102
RTVSPost2010PropOp47
 70
     1
102
RTVSPost2010Prop48
 90
       50
102
RTVSPost2010PropOp48
 70
     1
102
RTVSPost2010Prop49
280
     0
102
RTVSPost2010PropOp49
 70
     1
102
RTVSPost2010Prop50
 90
       50
102
RTVSPost2010PropOp50
 70
     1
102
RTVSPost2010Prop51ColorIndex
 90
      256
102
RTVSPost2010Prop51ColorRGB
 90
-16777216
102
RTVSPost2010PropOp51
 70
     0
102
RTVSPost2010Prop52
140
1.0
102
RTVSPost2010PropOp52
 70
     0
102
RTVSPost2010Prop53
 90
        2
102
RTVSPost2010PropOp53
 70
     1
102
RTVSPost2010Prop54
  1
strokes_ogs.tif
102
RTVSPost2010PropOp54
 70
     1
102
RTVSPost2010Prop55
280
     0
102
RTVSPost2010PropOp55
 70
     1
102
RTVSPost2010Prop56
140
1.0
102
RTVSPost2010PropOp56
 70
     1
102
RTVSPost2010Prop57
140
1.0
102
RTVSPost2010PropOp57
 70
     1
102
RTVSPropertyOp0
 70
     1
102
RTVSPropertyOp1
 70
     1
102
RTVSPropertyOp2
 70
     1
102
RTVSPropertyOp3
 70
     1
102
RTVSPropertyOp4
 70
     1
102
RTVSPropertyOp5
 70
     1
102
RTVSPropertyOp6
 70
     1
102
RTVSPropertyOp7
 70
     1
102
RTVSPropertyOp8
 70
     1
102
RTVSPropertyOp9
 70
     1
102
RTVSPropertyOp10
 70
     1
102
RTVSPropertyOp11
 70
     1
102
RTVSPropertyOp12
 70
     1
102
RTVSPropertyOp13
 70
     1
102
RTVSPropertyOp14
 70
     1
102
RTVSPropertyOp15
 70
     1
102
RTVSPropertyOp16
 70
     1
102
RTVSPropertyOp17
 70
     1
102
RTVSPropertyOp18
 70
     1
102
RTVSPropertyOp19
 70
     1
102
RTVSPropertyOp20
 70
     1
102
RTVSPropertyOp21
 70
     1
102
RTVSPropertyOp22
 70
     1
102
RTVSPropertyOp23
 70
     1
102
RTVSPropertyOp24
 70
     1
102
RTVSPropertyOp25
 70
     1
102
RTVSPropertyOp26
 70
     1
102
RTVSPropertyOp27
 70
     1
102
RTVSPropertyOp28
 70
     1
102
RTVSPropertyOp29
 70
     1
102
RTVSPropertyOp30
 70
     1
102
RTVSPropertyOp31
 70
     1
102
RTVSPropertyOp32
 70
     1
102
RTVSPropertyOp33
 70
     1
102
RTVSPropertyOp34
 70
     1
102
RTVSPropertyOp35
 70
     1
102
RTVSPropertyOp36
 70
     1
102
RTVSPropertyOp37
 70
     1
102
RTVSPropertyOp38
 70
     1
102
RTVSPropertyOp39
 70
     1
102
RTVSPropertyOp40
 70
     1
102
RTVSPropertyOp41
 70
     1
102
RTVSPropertyOp42
 70
     1
102
RTVSPropertyOp43
 70
     1
102
RTVSPropertyOp44
 70
     1
102
RTVSPropertyOp45
 70
     1
102
RTVSPropertyOp46
 70
     1
102
RTVSPropertyOp47
 70
     1
102
RTVSPropertyOp48
 70
     1
102
RTVSPropertyOp49
 70
     1
102
RTVSPropertyOp50
 70
     1
102
RTVSPropertyOp51
 70
     0
102
RTVSPropertyOp52
 70
     0
102
RTVSPropertyOp53
 70
     1
102
RTVSPropertyOp54
 70
     1
102
RTVSPropertyOp55
 70
     1
102
RTVSPropertyOp56
 70
     1
102
RTVSPropertyOp57
 70
     1
102
RTVSPropertyOp58
 70
     1
102
RTVSPropertyOp59
 70
     1
102
RTVSPropertyOp60
 70
     1
102
RTVSPropertyOp61
 70
     1
102
RTVSPropertyOp62
 70
     1
  0
XRECORD
  5
5B17
102
{ACAD_REACTORS
330
5B16
102
}
330
5B16
100
AcDbXrecord
280
     1
102
RTVSPost2010Prop28
280
     0
102
RTVSPost2010PropOp28
 70
     1
102
RTVSPost2010Prop29
280
     1
102
RTVSPost2010PropOp29
 70
     1
102
RTVSPost2010Prop30
280
     1
102
RTVSPost2010PropOp30
 70
     1
102
RTVSPost2010Prop31
280
     0
102
RTVSPost2010PropOp31
 70
     1
102
RTVSPost2010Prop32
280
     0
102
RTVSPost2010PropOp32
 70
     1
102
RTVSPost2010Prop33
280
     0
102
RTVSPost2010PropOp33
 70
     1
102
RTVSPost2010Prop34
280
     0
102
RTVSPost2010PropOp34
 70
     1
102
RTVSPost2010Prop35
280
     0
102
RTVSPost2010PropOp35
 70
     1
102
RTVSPost2010Prop36
280
     0
102
RTVSPost2010PropOp36
 70
     1
102
RTVSPost2010Prop37
 90
       50
102
RTVSPost2010PropOp37
 70
     1
102
RTVSPost2010Prop38
140
0.0
102
RTVSPost2010PropOp38
 70
     1
102
RTVSPost2010Prop39
140
1.0
102
RTVSPost2010PropOp39
 70
     1
102
RTVSPost2010Prop40
 90
        0
102
RTVSPost2010PropOp40
 70
     1
102
RTVSPost2010Prop41ColorIndex
 90
       18
102
RTVSPost2010Prop41ColorRGB
 90
        0
102
RTVSPost2010PropOp41
 70
     1
102
RTVSPost2010Prop42
 90
       50
102
RTVSPost2010PropOp42
 70
     1
102
RTVSPost2010Prop43
 90
        3
102
RTVSPost2010PropOp43
 70
     1
102
RTVSPost2010Prop44ColorIndex
 90
        5
102
RTVSPost2010Prop44ColorRGB
 90
      255
102
RTVSPost2010PropOp44
 70
     1
102
RTVSPost2010Prop45
280
     0
102
RTVSPost2010PropOp45
 70
     1
102
RTVSPost2010Prop46
 90
       50
102
RTVSPost2010PropOp46
 70
     1
102
RTVSPost2010Prop47
 90
       50
102
RTVSPost2010PropOp47
 70
     1
102
RTVSPost2010Prop48
 90
       50
102
RTVSPost2010PropOp48
 70
     1
102
RTVSPost2010Prop49
280
     0
102
RTVSPost2010PropOp49
 70
     1
102
RTVSPost2010Prop50
 90
       50
102
RTVSPost2010PropOp50
 70
     1
102
RTVSPost2010Prop51ColorIndex
 90
      256
102
RTVSPost2010Prop51ColorRGB
 90
-16777216
102
RTVSPost2010PropOp51
 70
     0
102
RTVSPost2010Prop52
140
1.0
102
RTVSPost2010PropOp52
 70
     0
102
RTVSPost2010Prop53
 90
        2
102
RTVSPost2010PropOp53
 70
     1
102
RTVSPost2010Prop54
  1
strokes_ogs.tif
102
RTVSPost2010PropOp54
 70
     1
102
RTVSPost2010Prop55
280
     0
102
RTVSPost2010PropOp55
 70
     1
102
RTVSPost2010Prop56
140
1.0
102
RTVSPost2010PropOp56
 70
     1
102
RTVSPost2010Prop57
140
1.0
102
RTVSPost2010PropOp57
 70
     1
102
RTVSPropertyOp0
 70
     1
102
RTVSPropertyOp1
 70
     1
102
RTVSPropertyOp2
 70
     1
102
RTVSPropertyOp3
 70
     1
102
RTVSPropertyOp4
 70
     1
102
RTVSPropertyOp5
 70
     1
102
RTVSPropertyOp6
 70
     1
102
RTVSPropertyOp7
 70
     1
102
RTVSPropertyOp8
 70
     1
102
RTVSPropertyOp9
 70
     1
102
RTVSPropertyOp10
 70
     1
102
RTVSPropertyOp11
 70
     1
102
RTVSPropertyOp12
 70
     1
102
RTVSPropertyOp13
 70
     1
102
RTVSPropertyOp14
 70
     1
102
RTVSPropertyOp15
 70
     1
102
RTVSPropertyOp16
 70
     1
102
RTVSPropertyOp17
 70
     1
102
RTVSPropertyOp18
 70
     1
102
RTVSPropertyOp19
 70
     1
102
RTVSPropertyOp20
 70
     1
102
RTVSPropertyOp21
 70
     1
102
RTVSPropertyOp22
 70
     1
102
RTVSPropertyOp23
 70
     1
102
RTVSPropertyOp24
 70
     1
102
RTVSPropertyOp25
 70
     1
102
RTVSPropertyOp26
 70
     1
102
RTVSPropertyOp27
 70
     1
102
RTVSPropertyOp28
 70
     1
102
RTVSPropertyOp29
 70
     1
102
RTVSPropertyOp30
 70
     1
102
RTVSPropertyOp31
 70
     1
102
RTVSPropertyOp32
 70
     1
102
RTVSPropertyOp33
 70
     1
102
RTVSPropertyOp34
 70
     1
102
RTVSPropertyOp35
 70
     1
102
RTVSPropertyOp36
 70
     1
102
RTVSPropertyOp37
 70
     1
102
RTVSPropertyOp38
 70
     1
102
RTVSPropertyOp39
 70
     1
102
RTVSPropertyOp40
 70
     1
102
RTVSPropertyOp41
 70
     1
102
RTVSPropertyOp42
 70
     1
102
RTVSPropertyOp43
 70
     1
102
RTVSPropertyOp44
 70
     1
102
RTVSPropertyOp45
 70
     1
102
RTVSPropertyOp46
 70
     1
102
RTVSPropertyOp47
 70
     1
102
RTVSPropertyOp48
 70
     1
102
RTVSPropertyOp49
 70
     1
102
RTVSPropertyOp50
 70
     1
102
RTVSPropertyOp51
 70
     0
102
RTVSPropertyOp52
 70
     0
102
RTVSPropertyOp53
 70
     1
102
RTVSPropertyOp54
 70
     1
102
RTVSPropertyOp55
 70
     1
102
RTVSPropertyOp56
 70
     1
102
RTVSPropertyOp57
 70
     1
102
RTVSPropertyOp58
 70
     1
102
RTVSPropertyOp59
 70
     1
102
RTVSPropertyOp60
 70
     1
102
RTVSPropertyOp61
 70
     1
102
RTVSPropertyOp62
 70
     1
  0
XRECORD
  5
5B19
102
{ACAD_REACTORS
330
5B18
102
}
330
5B18
100
AcDbXrecord
280
     1
102
RTVSPost2010Prop28
280
     0
102
RTVSPost2010PropOp28
 70
     1
102
RTVSPost2010Prop29
280
     1
102
RTVSPost2010PropOp29
 70
     1
102
RTVSPost2010Prop30
280
     1
102
RTVSPost2010PropOp30
 70
     1
102
RTVSPost2010Prop31
280
     0
102
RTVSPost2010PropOp31
 70
     1
102
RTVSPost2010Prop32
280
     0
102
RTVSPost2010PropOp32
 70
     1
102
RTVSPost2010Prop33
280
     0
102
RTVSPost2010PropOp33
 70
     1
102
RTVSPost2010Prop34
280
     0
102
RTVSPost2010PropOp34
 70
     1
102
RTVSPost2010Prop35
280
     0
102
RTVSPost2010PropOp35
 70
     1
102
RTVSPost2010Prop36
280
     0
102
RTVSPost2010PropOp36
 70
     1
102
RTVSPost2010Prop37
 90
       50
102
RTVSPost2010PropOp37
 70
     1
102
RTVSPost2010Prop38
140
0.0
102
RTVSPost2010PropOp38
 70
     1
102
RTVSPost2010Prop39
140
1.0
102
RTVSPost2010PropOp39
 70
     1
102
RTVSPost2010Prop40
 90
        0
102
RTVSPost2010PropOp40
 70
     1
102
RTVSPost2010Prop41ColorIndex
 90
       18
102
RTVSPost2010Prop41ColorRGB
 90
        0
102
RTVSPost2010PropOp41
 70
     1
102
RTVSPost2010Prop42
 90
       50
102
RTVSPost2010PropOp42
 70
     1
102
RTVSPost2010Prop43
 90
        3
102
RTVSPost2010PropOp43
 70
     1
102
RTVSPost2010Prop44ColorIndex
 90
        5
102
RTVSPost2010Prop44ColorRGB
 90
      255
102
RTVSPost2010PropOp44
 70
     1
102
RTVSPost2010Prop45
280
     0
102
RTVSPost2010PropOp45
 70
     1
102
RTVSPost2010Prop46
 90
       50
102
RTVSPost2010PropOp46
 70
     1
102
RTVSPost2010Prop47
 90
       50
102
RTVSPost2010PropOp47
 70
     1
102
RTVSPost2010Prop48
 90
       50
102
RTVSPost2010PropOp48
 70
     1
102
RTVSPost2010Prop49
280
     0
102
RTVSPost2010PropOp49
 70
     1
102
RTVSPost2010Prop50
 90
       50
102
RTVSPost2010PropOp50
 70
     1
102
RTVSPost2010Prop51ColorIndex
 90
      256
102
RTVSPost2010Prop51ColorRGB
 90
-16777216
102
RTVSPost2010PropOp51
 70
     0
102
RTVSPost2010Prop52
140
1.0
102
RTVSPost2010PropOp52
 70
     0
102
RTVSPost2010Prop53
 90
        2
102
RTVSPost2010PropOp53
 70
     1
102
RTVSPost2010Prop54
  1
strokes_ogs.tif
102
RTVSPost2010PropOp54
 70
     1
102
RTVSPost2010Prop55
280
     0
102
RTVSPost2010PropOp55
 70
     1
102
RTVSPost2010Prop56
140
1.0
102
RTVSPost2010PropOp56
 70
     1
102
RTVSPost2010Prop57
140
1.0
102
RTVSPost2010PropOp57
 70
     1
102
RTVSPropertyOp0
 70
     1
102
RTVSPropertyOp1
 70
     1
102
RTVSPropertyOp2
 70
     1
102
RTVSPropertyOp3
 70
     1
102
RTVSPropertyOp4
 70
     1
102
RTVSPropertyOp5
 70
     1
102
RTVSPropertyOp6
 70
     1
102
RTVSPropertyOp7
 70
     1
102
RTVSPropertyOp8
 70
     1
102
RTVSPropertyOp9
 70
     1
102
RTVSPropertyOp10
 70
     1
102
RTVSPropertyOp11
 70
     1
102
RTVSPropertyOp12
 70
     1
102
RTVSPropertyOp13
 70
     1
102
RTVSPropertyOp14
 70
     1
102
RTVSPropertyOp15
 70
     1
102
RTVSPropertyOp16
 70
     1
102
RTVSPropertyOp17
 70
     1
102
RTVSPropertyOp18
 70
     1
102
RTVSPropertyOp19
 70
     1
102
RTVSPropertyOp20
 70
     1
102
RTVSPropertyOp21
 70
     1
102
RTVSPropertyOp22
 70
     1
102
RTVSPropertyOp23
 70
     1
102
RTVSPropertyOp24
 70
     1
102
RTVSPropertyOp25
 70
     1
102
RTVSPropertyOp26
 70
     1
102
RTVSPropertyOp27
 70
     1
102
RTVSPropertyOp28
 70
     1
102
RTVSPropertyOp29
 70
     1
102
RTVSPropertyOp30
 70
     1
102
RTVSPropertyOp31
 70
     1
102
RTVSPropertyOp32
 70
     1
102
RTVSPropertyOp33
 70
     1
102
RTVSPropertyOp34
 70
     1
102
RTVSPropertyOp35
 70
     1
102
RTVSPropertyOp36
 70
     1
102
RTVSPropertyOp37
 70
     1
102
RTVSPropertyOp38
 70
     1
102
RTVSPropertyOp39
 70
     1
102
RTVSPropertyOp40
 70
     1
102
RTVSPropertyOp41
 70
     1
102
RTVSPropertyOp42
 70
     1
102
RTVSPropertyOp43
 70
     1
102
RTVSPropertyOp44
 70
     1
102
RTVSPropertyOp45
 70
     1
102
RTVSPropertyOp46
 70
     1
102
RTVSPropertyOp47
 70
     1
102
RTVSPropertyOp48
 70
     1
102
RTVSPropertyOp49
 70
     1
102
RTVSPropertyOp50
 70
     1
102
RTVSPropertyOp51
 70
     0
102
RTVSPropertyOp52
 70
     0
102
RTVSPropertyOp53
 70
     1
102
RTVSPropertyOp54
 70
     1
102
RTVSPropertyOp55
 70
     1
102
RTVSPropertyOp56
 70
     1
102
RTVSPropertyOp57
 70
     1
102
RTVSPropertyOp58
 70
     1
102
RTVSPropertyOp59
 70
     1
102
RTVSPropertyOp60
 70
     1
102
RTVSPropertyOp61
 70
     1
102
RTVSPropertyOp62
 70
     1
  0
XRECORD
  5
5B0B
102
{ACAD_REACTORS
330
5B0A
102
}
330
5B0A
100
AcDbXrecord
280
     1
102
RTVSPost2010Prop28
280
     0
102
RTVSPost2010PropOp28
 70
     1
102
RTVSPost2010Prop29
280
     1
102
RTVSPost2010PropOp29
 70
     1
102
RTVSPost2010Prop30
280
     1
102
RTVSPost2010PropOp30
 70
     1
102
RTVSPost2010Prop31
280
     0
102
RTVSPost2010PropOp31
 70
     1
102
RTVSPost2010Prop32
280
     0
102
RTVSPost2010PropOp32
 70
     1
102
RTVSPost2010Prop33
280
     0
102
RTVSPost2010PropOp33
 70
     1
102
RTVSPost2010Prop34
280
     0
102
RTVSPost2010PropOp34
 70
     1
102
RTVSPost2010Prop35
280
     0
102
RTVSPost2010PropOp35
 70
     1
102
RTVSPost2010Prop36
280
     0
102
RTVSPost2010PropOp36
 70
     1
102
RTVSPost2010Prop37
 90
       50
102
RTVSPost2010PropOp37
 70
     1
102
RTVSPost2010Prop38
140
0.0
102
RTVSPost2010PropOp38
 70
     1
102
RTVSPost2010Prop39
140
1.0
102
RTVSPost2010PropOp39
 70
     1
102
RTVSPost2010Prop40
 90
        0
102
RTVSPost2010PropOp40
 70
     1
102
RTVSPost2010Prop41ColorIndex
 90
       18
102
RTVSPost2010Prop41ColorRGB
 90
        0
102
RTVSPost2010PropOp41
 70
     1
102
RTVSPost2010Prop42
 90
       50
102
RTVSPost2010PropOp42
 70
     1
102
RTVSPost2010Prop43
 90
        3
102
RTVSPost2010PropOp43
 70
     1
102
RTVSPost2010Prop44ColorIndex
 90
        5
102
RTVSPost2010Prop44ColorRGB
 90
      255
102
RTVSPost2010PropOp44
 70
     1
102
RTVSPost2010Prop45
280
     0
102
RTVSPost2010PropOp45
 70
     1
102
RTVSPost2010Prop46
 90
       50
102
RTVSPost2010PropOp46
 70
     1
102
RTVSPost2010Prop47
 90
       50
102
RTVSPost2010PropOp47
 70
     1
102
RTVSPost2010Prop48
 90
       50
102
RTVSPost2010PropOp48
 70
     1
102
RTVSPost2010Prop49
280
     0
102
RTVSPost2010PropOp49
 70
     1
102
RTVSPost2010Prop50
 90
       50
102
RTVSPost2010PropOp50
 70
     1
102
RTVSPost2010Prop51ColorIndex
 90
      256
102
RTVSPost2010Prop51ColorRGB
 90
-16777216
102
RTVSPost2010PropOp51
 70
     0
102
RTVSPost2010Prop52
140
1.0
102
RTVSPost2010PropOp52
 70
     0
102
RTVSPost2010Prop53
 90
        2
102
RTVSPost2010PropOp53
 70
     1
102
RTVSPost2010Prop54
  1
strokes_ogs.tif
102
RTVSPost2010PropOp54
 70
     1
102
RTVSPost2010Prop55
280
     0
102
RTVSPost2010PropOp55
 70
     1
102
RTVSPost2010Prop56
140
1.0
102
RTVSPost2010PropOp56
 70
     1
102
RTVSPost2010Prop57
140
1.0
102
RTVSPost2010PropOp57
 70
     1
102
RTVSPropertyOp0
 70
     1
102
RTVSPropertyOp1
 70
     1
102
RTVSPropertyOp2
 70
     1
102
RTVSPropertyOp3
 70
     1
102
RTVSPropertyOp4
 70
     1
102
RTVSPropertyOp5
 70
     1
102
RTVSPropertyOp6
 70
     1
102
RTVSPropertyOp7
 70
     1
102
RTVSPropertyOp8
 70
     1
102
RTVSPropertyOp9
 70
     1
102
RTVSPropertyOp10
 70
     1
102
RTVSPropertyOp11
 70
     1
102
RTVSPropertyOp12
 70
     1
102
RTVSPropertyOp13
 70
     1
102
RTVSPropertyOp14
 70
     1
102
RTVSPropertyOp15
 70
     1
102
RTVSPropertyOp16
 70
     1
102
RTVSPropertyOp17
 70
     1
102
RTVSPropertyOp18
 70
     1
102
RTVSPropertyOp19
 70
     1
102
RTVSPropertyOp20
 70
     1
102
RTVSPropertyOp21
 70
     1
102
RTVSPropertyOp22
 70
     1
102
RTVSPropertyOp23
 70
     1
102
RTVSPropertyOp24
 70
     1
102
RTVSPropertyOp25
 70
     1
102
RTVSPropertyOp26
 70
     1
102
RTVSPropertyOp27
 70
     1
102
RTVSPropertyOp28
 70
     1
102
RTVSPropertyOp29
 70
     1
102
RTVSPropertyOp30
 70
     1
102
RTVSPropertyOp31
 70
     1
102
RTVSPropertyOp32
 70
     1
102
RTVSPropertyOp33
 70
     1
102
RTVSPropertyOp34
 70
     1
102
RTVSPropertyOp35
 70
     1
102
RTVSPropertyOp36
 70
     1
102
RTVSPropertyOp37
 70
     1
102
RTVSPropertyOp38
 70
     1
102
RTVSPropertyOp39
 70
     1
102
RTVSPropertyOp40
 70
     1
102
RTVSPropertyOp41
 70
     1
102
RTVSPropertyOp42
 70
     1
102
RTVSPropertyOp43
 70
     1
102
RTVSPropertyOp44
 70
     1
102
RTVSPropertyOp45
 70
     1
102
RTVSPropertyOp46
 70
     1
102
RTVSPropertyOp47
 70
     1
102
RTVSPropertyOp48
 70
     1
102
RTVSPropertyOp49
 70
     1
102
RTVSPropertyOp50
 70
     1
102
RTVSPropertyOp51
 70
     0
102
RTVSPropertyOp52
 70
     0
102
RTVSPropertyOp53
 70
     1
102
RTVSPropertyOp54
 70
     1
102
RTVSPropertyOp55
 70
     1
102
RTVSPropertyOp56
 70
     1
102
RTVSPropertyOp57
 70
     1
102
RTVSPropertyOp58
 70
     1
102
RTVSPropertyOp59
 70
     1
102
RTVSPropertyOp60
 70
     1
102
RTVSPropertyOp61
 70
     1
102
RTVSPropertyOp62
 70
     1
  0
XRECORD
  5
5B13
102
{ACAD_REACTORS
330
5B12
102
}
330
5B12
100
AcDbXrecord
280
     1
102
RTVSPost2010Prop28
280
     0
102
RTVSPost2010PropOp28
 70
     1
102
RTVSPost2010Prop29
280
     1
102
RTVSPost2010PropOp29
 70
     1
102
RTVSPost2010Prop30
280
     1
102
RTVSPost2010PropOp30
 70
     1
102
RTVSPost2010Prop31
280
     0
102
RTVSPost2010PropOp31
 70
     1
102
RTVSPost2010Prop32
280
     0
102
RTVSPost2010PropOp32
 70
     1
102
RTVSPost2010Prop33
280
     0
102
RTVSPost2010PropOp33
 70
     1
102
RTVSPost2010Prop34
280
     0
102
RTVSPost2010PropOp34
 70
     1
102
RTVSPost2010Prop35
280
     0
102
RTVSPost2010PropOp35
 70
     1
102
RTVSPost2010Prop36
280
     0
102
RTVSPost2010PropOp36
 70
     1
102
RTVSPost2010Prop37
 90
       50
102
RTVSPost2010PropOp37
 70
     1
102
RTVSPost2010Prop38
140
0.0
102
RTVSPost2010PropOp38
 70
     1
102
RTVSPost2010Prop39
140
1.0
102
RTVSPost2010PropOp39
 70
     1
102
RTVSPost2010Prop40
 90
        0
102
RTVSPost2010PropOp40
 70
     1
102
RTVSPost2010Prop41ColorIndex
 90
       18
102
RTVSPost2010Prop41ColorRGB
 90
        0
102
RTVSPost2010PropOp41
 70
     1
102
RTVSPost2010Prop42
 90
       50
102
RTVSPost2010PropOp42
 70
     1
102
RTVSPost2010Prop43
 90
        3
102
RTVSPost2010PropOp43
 70
     1
102
RTVSPost2010Prop44ColorIndex
 90
        5
102
RTVSPost2010Prop44ColorRGB
 90
      255
102
RTVSPost2010PropOp44
 70
     1
102
RTVSPost2010Prop45
280
     0
102
RTVSPost2010PropOp45
 70
     1
102
RTVSPost2010Prop46
 90
       50
102
RTVSPost2010PropOp46
 70
     1
102
RTVSPost2010Prop47
 90
       50
102
RTVSPost2010PropOp47
 70
     1
102
RTVSPost2010Prop48
 90
       50
102
RTVSPost2010PropOp48
 70
     1
102
RTVSPost2010Prop49
280
     0
102
RTVSPost2010PropOp49
 70
     1
102
RTVSPost2010Prop50
 90
       50
102
RTVSPost2010PropOp50
 70
     1
102
RTVSPost2010Prop51ColorIndex
 90
      256
102
RTVSPost2010Prop51ColorRGB
 90
-16777216
102
RTVSPost2010PropOp51
 70
     0
102
RTVSPost2010Prop52
140
1.0
102
RTVSPost2010PropOp52
 70
     0
102
RTVSPost2010Prop53
 90
        2
102
RTVSPost2010PropOp53
 70
     1
102
RTVSPost2010Prop54
  1
strokes_ogs.tif
102
RTVSPost2010PropOp54
 70
     1
102
RTVSPost2010Prop55
280
     0
102
RTVSPost2010PropOp55
 70
     1
102
RTVSPost2010Prop56
140
1.0
102
RTVSPost2010PropOp56
 70
     1
102
RTVSPost2010Prop57
140
1.0
102
RTVSPost2010PropOp57
 70
     1
102
RTVSPropertyOp0
 70
     1
102
RTVSPropertyOp1
 70
     1
102
RTVSPropertyOp2
 70
     1
102
RTVSPropertyOp3
 70
     1
102
RTVSPropertyOp4
 70
     1
102
RTVSPropertyOp5
 70
     1
102
RTVSPropertyOp6
 70
     1
102
RTVSPropertyOp7
 70
     1
102
RTVSPropertyOp8
 70
     1
102
RTVSPropertyOp9
 70
     1
102
RTVSPropertyOp10
 70
     1
102
RTVSPropertyOp11
 70
     1
102
RTVSPropertyOp12
 70
     1
102
RTVSPropertyOp13
 70
     1
102
RTVSPropertyOp14
 70
     1
102
RTVSPropertyOp15
 70
     1
102
RTVSPropertyOp16
 70
     1
102
RTVSPropertyOp17
 70
     1
102
RTVSPropertyOp18
 70
     1
102
RTVSPropertyOp19
 70
     1
102
RTVSPropertyOp20
 70
     1
102
RTVSPropertyOp21
 70
     1
102
RTVSPropertyOp22
 70
     1
102
RTVSPropertyOp23
 70
     1
102
RTVSPropertyOp24
 70
     1
102
RTVSPropertyOp25
 70
     1
102
RTVSPropertyOp26
 70
     1
102
RTVSPropertyOp27
 70
     1
102
RTVSPropertyOp28
 70
     1
102
RTVSPropertyOp29
 70
     1
102
RTVSPropertyOp30
 70
     1
102
RTVSPropertyOp31
 70
     1
102
RTVSPropertyOp32
 70
     1
102
RTVSPropertyOp33
 70
     1
102
RTVSPropertyOp34
 70
     1
102
RTVSPropertyOp35
 70
     1
102
RTVSPropertyOp36
 70
     1
102
RTVSPropertyOp37
 70
     1
102
RTVSPropertyOp38
 70
     1
102
RTVSPropertyOp39
 70
     1
102
RTVSPropertyOp40
 70
     1
102
RTVSPropertyOp41
 70
     1
102
RTVSPropertyOp42
 70
     1
102
RTVSPropertyOp43
 70
     1
102
RTVSPropertyOp44
 70
     1
102
RTVSPropertyOp45
 70
     1
102
RTVSPropertyOp46
 70
     1
102
RTVSPropertyOp47
 70
     1
102
RTVSPropertyOp48
 70
     1
102
RTVSPropertyOp49
 70
     1
102
RTVSPropertyOp50
 70
     1
102
RTVSPropertyOp51
 70
     0
102
RTVSPropertyOp52
 70
     0
102
RTVSPropertyOp53
 70
     1
102
RTVSPropertyOp54
 70
     1
102
RTVSPropertyOp55
 70
     1
102
RTVSPropertyOp56
 70
     1
102
RTVSPropertyOp57
 70
     1
102
RTVSPropertyOp58
 70
     1
102
RTVSPropertyOp59
 70
     1
102
RTVSPropertyOp60
 70
     1
102
RTVSPropertyOp61
 70
     1
102
RTVSPropertyOp62
 70
     1
  0
XRECORD
  5
5B1B
102
{ACAD_REACTORS
330
5B1A
102
}
330
5B1A
100
AcDbXrecord
280
     1
102
RTVSPost2010Prop28
280
     0
102
RTVSPost2010PropOp28
 70
     1
102
RTVSPost2010Prop29
280
     1
102
RTVSPost2010PropOp29
 70
     1
102
RTVSPost2010Prop30
280
     1
102
RTVSPost2010PropOp30
 70
     1
102
RTVSPost2010Prop31
280
     0
102
RTVSPost2010PropOp31
 70
     1
102
RTVSPost2010Prop32
280
     0
102
RTVSPost2010PropOp32
 70
     1
102
RTVSPost2010Prop33
280
     0
102
RTVSPost2010PropOp33
 70
     1
102
RTVSPost2010Prop34
280
     0
102
RTVSPost2010PropOp34
 70
     1
102
RTVSPost2010Prop35
280
     0
102
RTVSPost2010PropOp35
 70
     1
102
RTVSPost2010Prop36
280
     0
102
RTVSPost2010PropOp36
 70
     1
102
RTVSPost2010Prop37
 90
       50
102
RTVSPost2010PropOp37
 70
     1
102
RTVSPost2010Prop38
140
0.0
102
RTVSPost2010PropOp38
 70
     1
102
RTVSPost2010Prop39
140
1.0
102
RTVSPost2010PropOp39
 70
     1
102
RTVSPost2010Prop40
 90
        0
102
RTVSPost2010PropOp40
 70
     1
102
RTVSPost2010Prop41ColorIndex
 90
       18
102
RTVSPost2010Prop41ColorRGB
 90
        0
102
RTVSPost2010PropOp41
 70
     1
102
RTVSPost2010Prop42
 90
       50
102
RTVSPost2010PropOp42
 70
     1
102
RTVSPost2010Prop43
 90
        3
102
RTVSPost2010PropOp43
 70
     1
102
RTVSPost2010Prop44ColorIndex
 90
        5
102
RTVSPost2010Prop44ColorRGB
 90
      255
102
RTVSPost2010PropOp44
 70
     1
102
RTVSPost2010Prop45
280
     0
102
RTVSPost2010PropOp45
 70
     1
102
RTVSPost2010Prop46
 90
       50
102
RTVSPost2010PropOp46
 70
     1
102
RTVSPost2010Prop47
 90
       50
102
RTVSPost2010PropOp47
 70
     1
102
RTVSPost2010Prop48
 90
       50
102
RTVSPost2010PropOp48
 70
     1
102
RTVSPost2010Prop49
280
     0
102
RTVSPost2010PropOp49
 70
     1
102
RTVSPost2010Prop50
 90
       50
102
RTVSPost2010PropOp50
 70
     1
102
RTVSPost2010Prop51ColorIndex
 90
      256
102
RTVSPost2010Prop51ColorRGB
 90
-16777216
102
RTVSPost2010PropOp51
 70
     0
102
RTVSPost2010Prop52
140
1.0
102
RTVSPost2010PropOp52
 70
     0
102
RTVSPost2010Prop53
 90
        2
102
RTVSPost2010PropOp53
 70
     1
102
RTVSPost2010Prop54
  1
strokes_ogs.tif
102
RTVSPost2010PropOp54
 70
     1
102
RTVSPost2010Prop55
280
     0
102
RTVSPost2010PropOp55
 70
     1
102
RTVSPost2010Prop56
140
1.0
102
RTVSPost2010PropOp56
 70
     1
102
RTVSPost2010Prop57
140
1.0
102
RTVSPost2010PropOp57
 70
     1
102
RTVSPropertyOp0
 70
     1
102
RTVSPropertyOp1
 70
     1
102
RTVSPropertyOp2
 70
     1
102
RTVSPropertyOp3
 70
     1
102
RTVSPropertyOp4
 70
     1
102
RTVSPropertyOp5
 70
     1
102
RTVSPropertyOp6
 70
     1
102
RTVSPropertyOp7
 70
     1
102
RTVSPropertyOp8
 70
     1
102
RTVSPropertyOp9
 70
     1
102
RTVSPropertyOp10
 70
     1
102
RTVSPropertyOp11
 70
     1
102
RTVSPropertyOp12
 70
     1
102
RTVSPropertyOp13
 70
     1
102
RTVSPropertyOp14
 70
     1
102
RTVSPropertyOp15
 70
     1
102
RTVSPropertyOp16
 70
     1
102
RTVSPropertyOp17
 70
     1
102
RTVSPropertyOp18
 70
     1
102
RTVSPropertyOp19
 70
     1
102
RTVSPropertyOp20
 70
     1
102
RTVSPropertyOp21
 70
     1
102
RTVSPropertyOp22
 70
     1
102
RTVSPropertyOp23
 70
     1
102
RTVSPropertyOp24
 70
     1
102
RTVSPropertyOp25
 70
     1
102
RTVSPropertyOp26
 70
     1
102
RTVSPropertyOp27
 70
     1
102
RTVSPropertyOp28
 70
     1
102
RTVSPropertyOp29
 70
     1
102
RTVSPropertyOp30
 70
     1
102
RTVSPropertyOp31
 70
     1
102
RTVSPropertyOp32
 70
     1
102
RTVSPropertyOp33
 70
     1
102
RTVSPropertyOp34
 70
     1
102
RTVSPropertyOp35
 70
     1
102
RTVSPropertyOp36
 70
     1
102
RTVSPropertyOp37
 70
     1
102
RTVSPropertyOp38
 70
     1
102
RTVSPropertyOp39
 70
     1
102
RTVSPropertyOp40
 70
     1
102
RTVSPropertyOp41
 70
     1
102
RTVSPropertyOp42
 70
     1
102
RTVSPropertyOp43
 70
     1
102
RTVSPropertyOp44
 70
     1
102
RTVSPropertyOp45
 70
     1
102
RTVSPropertyOp46
 70
     1
102
RTVSPropertyOp47
 70
     1
102
RTVSPropertyOp48
 70
     1
102
RTVSPropertyOp49
 70
     1
102
RTVSPropertyOp50
 70
     1
102
RTVSPropertyOp51
 70
     0
102
RTVSPropertyOp52
 70
     0
102
RTVSPropertyOp53
 70
     1
102
RTVSPropertyOp54
 70
     1
102
RTVSPropertyOp55
 70
     1
102
RTVSPropertyOp56
 70
     1
102
RTVSPropertyOp57
 70
     1
102
RTVSPropertyOp58
 70
     1
102
RTVSPropertyOp59
 70
     1
102
RTVSPropertyOp60
 70
     1
102
RTVSPropertyOp61
 70
     1
102
RTVSPropertyOp62
 70
     1
  0
ENDSEC
  0
EOF
